<?xml version="1.0" standalone="no"?>
<!DOCTYPE svg PUBLIC "-//W3C//DTD SVG 1.1//EN" "http://www.w3.org/Graphics/SVG/1.1/DTD/svg11.dtd" >
<svg xmlns="http://www.w3.org/2000/svg">
<metadata>
Created by FontForge 20120731 at Fri Mar 18 15:16:28 2016
 By Ads
</metadata>
<defs>
<font id="iconfont" horiz-adv-x="1024" >
  <font-face 
    font-family="iconfont"
    font-weight="500"
    font-stretch="normal"
    units-per-em="1024"
    panose-1="2 0 6 3 0 0 0 0 0 0"
    ascent="896"
    descent="-128"
    x-height="792"
    bbox="-0.797753 -128.5 1025 896.645"
    underline-thickness="50"
    underline-position="-100"
    unicode-range="U+0078-E6B2"
  />
<missing-glyph horiz-adv-x="374" 
d="M34 0v682h272v-682h-272zM68 34h204v614h-204v-614z" />
    <glyph glyph-name=".notdef" horiz-adv-x="374" 
d="M34 0v682h272v-682h-272zM68 34h204v614h-204v-614z" />
    <glyph glyph-name=".null" horiz-adv-x="0" 
 />
    <glyph glyph-name="nonmarkingreturn" horiz-adv-x="341" 
 />
    <glyph glyph-name="x" unicode="x" horiz-adv-x="1001" 
d="M281 543q-27 -1 -53 -1h-83q-18 0 -36.5 -6t-32.5 -18.5t-23 -32t-9 -45.5v-76h912v41q0 16 -0.5 30t-0.5 18q0 13 -5 29t-17 29.5t-31.5 22.5t-49.5 9h-133v-97h-438v97zM955 310v-52q0 -23 0.5 -52t0.5 -58t-10.5 -47.5t-26 -30t-33 -16t-31.5 -4.5q-14 -1 -29.5 -0.5
t-29.5 0.5h-32l-45 128h-439l-44 -128h-29h-34q-20 0 -45 1q-25 0 -41 9.5t-25.5 23t-13.5 29.5t-4 30v167h911zM163 247q-12 0 -21 -8.5t-9 -21.5t9 -21.5t21 -8.5q13 0 22 8.5t9 21.5t-9 21.5t-22 8.5zM316 123q-8 -26 -14 -48q-5 -19 -10.5 -37t-7.5 -25t-3 -15t1 -14.5
t9.5 -10.5t21.5 -4h37h67h81h80h64h36q23 0 34 12t2 38q-5 13 -9.5 30.5t-9.5 34.5q-5 19 -11 39h-368zM336 498v228q0 11 2.5 23t10 21.5t20.5 15.5t34 6h188q31 0 51.5 -14.5t20.5 -52.5v-227h-327z" />
    <glyph glyph-name="uniE600" unicode="&#xe600;" 
d="M267 887q-10 -10 -10 -23t10 -23l482 -457l-482 -457q-10 -10 -10 -23t10 -23q10 -9 24 -9t24 9l506 480q10 10 10 23t-10 23l-506 480q-10 9 -24 9t-24 -9z" />
    <glyph glyph-name="uniE601" unicode="&#xe601;" 
d="M757 887q10 -10 10 -23t-10 -23l-482 -457l482 -457q10 -10 10 -23t-10 -23q-10 -9 -24 -9t-24 9l-506 480q-10 10 -10 23t10 23l506 480q10 9 24 9t24 -9z" />
    <glyph glyph-name="uniE602" unicode="&#xe602;" horiz-adv-x="1025" 
d="M1015 138q-10 -10 -23 -10t-23 10l-457 482l-457 -482q-10 -10 -23 -10t-23 10q-9 10 -9 24t9 24l480 506q10 10 23 10t23 -10l480 -506q3 -4 5 -7.5t3 -8t1 -9t-1 -8.5t-3 -8t-5 -7z" />
    <glyph glyph-name="uniE603" unicode="&#xe603;" horiz-adv-x="1025" 
d="M1015 692q-5 5 -11 7.5t-12 2.5t-12 -2.5t-11 -7.5l-457 -482l-457 482q-5 5 -11 7.5t-12 2.5t-12 -2.5t-11 -7.5q-6 -6 -8 -15t0 -17.5t8 -15.5l480 -506q7 -7 15 -9t16.5 0t14.5 9l480 506q3 4 5.5 9t3 10t0 10t-3 10t-5.5 9z" />
    <glyph glyph-name="uniE604" unicode="&#xe604;" 
d="M512 896q-139 0 -257 -68.5t-186.5 -186.5t-68.5 -257t68.5 -257t186.5 -186.5t257 -68.5t257 68.5t186.5 186.5t68.5 257t-68.5 257t-186.5 186.5t-257 68.5zM603 83l-305 285q-4 5 -5.5 10.5t0 11t5.5 10.5l305 285q8 6 16 6t14.5 -6t6.5 -16v-571q0 -14 -13 -19.5
t-24 4.5z" />
    <glyph glyph-name="uniE605" unicode="&#xe605;" 
d="M512 896q-139 0 -257 -68.5t-186.5 -186.5t-68.5 -257t68.5 -257t186.5 -186.5t257 -68.5t257 68.5t186.5 186.5t68.5 257t-68.5 257t-186.5 186.5t-257 68.5zM727 368l-305 -285q-5 -5 -11.5 -6t-12.5 1.5t-9.5 8t-3.5 11.5v572q0 14 13 19.5t24 -4.5l305 -285
q6 -7 6 -16t-6 -16z" />
    <glyph glyph-name="uniE606" unicode="&#xe606;" 
d="M512 896q-139 0 -257 -68.5t-186.5 -186.5t-68.5 -257t68.5 -257t186.5 -186.5t257 -68.5t257 68.5t186.5 186.5t68.5 257t-68.5 257t-186.5 186.5t-257 68.5zM798 257h-572q-14 0 -19.5 13t4.5 24l285 305q7 6 16 6t16 -6l285 -305q3 -3 4.5 -6.5t1.5 -7t-0.5 -7
t-2.5 -6.5t-4.5 -5.5t-6 -3.5t-7.5 -1z" />
    <glyph glyph-name="uniE607" unicode="&#xe607;" 
d="M512 896q-139 0 -257 -68.5t-186.5 -186.5t-68.5 -257t68.5 -257t186.5 -186.5t257 -68.5t257 68.5t186.5 186.5t68.5 257t-68.5 257t-186.5 186.5t-257 68.5zM813 475l-285 -305q-7 -7 -16 -7t-16 7l-285 305q-6 8 -6 16t6 14.5t15 6.5h572q9 0 15 -6.5t6 -14.5t-6 -16z
" />
    <glyph glyph-name="uniE608" unicode="&#xe608;" horiz-adv-x="1025" 
d="M567 826l447 -419q10 -9 10 -22.5t-10 -23.5l-447 -419q-15 -14 -34.5 -6t-19.5 29v838q0 24 23 31q18 4 31 -8zM54 826l448 -419q9 -9 9 -22.5t-9 -23.5l-448 -419q-15 -14 -34.5 -6t-19.5 29v838q0 21 19.5 29.5t34.5 -6.5z" />
    <glyph glyph-name="uniE609" unicode="&#xe609;" horiz-adv-x="1025" 
d="M457 826l-447 -419q-10 -9 -10 -22.5t10 -23.5l447 -419q15 -14 34.5 -6t19.5 29v838q0 14 -9.5 23t-21.5 9t-23 -9zM970 826l-447 -419q-10 -9 -10 -22.5t10 -23.5l447 -419q11 -9 23 -9t21.5 9.5t9.5 22.5v838q0 14 -9.5 23t-21.5 9t-23 -9z" />
    <glyph glyph-name="uniE60A" unicode="&#xe60a;" 
d="M261 886l558 -476q12 -11 12 -26t-12 -26l-558 -476q-6 -5 -14 -7.5t-15.5 -2.5t-14.5 3t-12 7.5t-8.5 11.5t-3.5 14v952q0 24 24.5 33t43.5 -7z" />
    <glyph glyph-name="uniE60B" unicode="&#xe60b;" 
d="M512 832q30 0 59.5 -4t58.5 -12t56 -19q81 -34 143 -96q20 -21 38 -43.5t32.5 -47.5t25.5 -52q35 -83 35 -174t-35 -174q-34 -81 -96 -143q-16 -15 -32.5 -29t-34.5 -26t-37 -22t-39 -19q-83 -35 -174 -35t-174 35q-81 34 -143 96t-96 143q-35 83 -35 174t35 174
q34 81 96 143t143 96q83 35 174 35zM512 896q-139 0 -257 -68.5t-186.5 -186.5t-68.5 -257t68.5 -257t186.5 -186.5t257 -68.5t257 68.5t186.5 186.5t68.5 257t-68.5 257t-186.5 186.5t-257 68.5zM603 83l-305 285q-4 5 -5.5 10.5t0 11t5.5 10.5l305 285q8 6 16 6t14.5 -6
t6.5 -16v-571q0 -14 -13 -19.5t-24 4.5z" />
    <glyph glyph-name="uniE60C" unicode="&#xe60c;" 
d="M512 832q30 0 59.5 -4t58.5 -12t56 -19q81 -34 143 -96q20 -21 38 -43.5t32.5 -47.5t25.5 -52q35 -83 35 -174t-35 -174q-34 -81 -96 -143q-16 -15 -32.5 -29t-34.5 -26t-37 -22t-39 -19q-83 -35 -174 -35t-174 35q-81 34 -143 96t-96 143q-35 83 -35 174t35 174
q34 81 96 143t143 96q83 35 174 35zM512 896q-139 0 -257 -68.5t-186.5 -186.5t-68.5 -257t68.5 -257t186.5 -186.5t257 -68.5t257 68.5t186.5 186.5t68.5 257t-68.5 257t-186.5 186.5t-257 68.5zM798 257h-572q-14 0 -19.5 13t4.5 24l285 305q7 6 16 6t16 -6l285 -305
q3 -3 4.5 -6.5t1.5 -7t-0.5 -7t-2.5 -6.5t-4.5 -5.5t-6 -3.5t-7.5 -1z" />
    <glyph glyph-name="uniE60D" unicode="&#xe60d;" 
d="M512 832q30 0 59.5 -4t58.5 -12t56 -19q81 -34 143 -96q20 -21 38 -43.5t32.5 -47.5t25.5 -52q35 -83 35 -174t-35 -174q-34 -81 -96 -143q-16 -15 -32.5 -29t-34.5 -26t-37 -22t-39 -19q-83 -35 -174 -35t-174 35q-81 34 -143 96t-96 143q-35 83 -35 174t35 174
q34 81 96 143t143 96q83 35 174 35zM512 896q-139 0 -257 -68.5t-186.5 -186.5t-68.5 -257t68.5 -257t186.5 -186.5t257 -68.5t257 68.5t186.5 186.5t68.5 257t-68.5 257t-186.5 186.5t-257 68.5zM727 368l-305 -285q-5 -5 -11.5 -6t-12.5 1.5t-9.5 8t-3.5 11.5v572
q0 14 13 19.5t24 -4.5l305 -285q6 -7 6 -16t-6 -16z" />
    <glyph glyph-name="uniE60E" unicode="&#xe60e;" 
d="M512 832q30 0 59.5 -4t58.5 -12t56 -19q81 -34 143 -96q20 -21 38 -43.5t32.5 -47.5t25.5 -52q35 -83 35 -174t-35 -174q-34 -81 -96 -143q-16 -15 -32.5 -29t-34.5 -26t-37 -22t-39 -19q-83 -35 -174 -35t-174 35q-81 34 -143 96t-96 143q-35 83 -35 174t35 174
q34 81 96 143t143 96q83 35 174 35zM512 896q-139 0 -257 -68.5t-186.5 -186.5t-68.5 -257t68.5 -257t186.5 -186.5t257 -68.5t257 68.5t186.5 186.5t68.5 257t-68.5 257t-186.5 186.5t-257 68.5zM813 475l-285 -305q-7 -7 -16 -7t-16 7l-285 305q-6 8 -6 16t6 14.5t15 6.5
h572q9 0 15 -6.5t6 -14.5t-6 -16z" />
    <glyph glyph-name="uniE60F" unicode="&#xe60f;" 
d="M763 886l-558 -476q-12 -11 -12 -26t12 -26l558 -476q19 -16 43.5 -7t24.5 33v952q0 24 -24.5 33t-43.5 -7z" />
    <glyph glyph-name="uniE610" unicode="&#xe610;" 
d="M1014 133l-476 558q-3 3 -6.5 5.5t-7.5 4t-8 2t-8 0t-8 -2t-7.5 -4t-6.5 -5.5l-476 -558q-16 -19 -7 -43.5t33 -24.5h952q24 0 33 24.5t-7 43.5z" />
    <glyph glyph-name="uniE611" unicode="&#xe611;" 
d="M1014 635l-476 -558q-7 -8 -16.5 -11t-19 0t-16.5 11l-476 558q-16 19 -7 43.5t33 24.5h952q24 0 33 -24.5t-7 -43.5z" />
    <glyph glyph-name="uniE612" unicode="&#xe612;" 
d="M51 823l420 -416q4 -4 6 -8.5t3 -9.5v411q0 14 9 23t20 9t22 -9l420 -416q6 -6 8 -14.5t0 -17t-8 -14.5l-420 -416q-18 -18 -38 -3q-13 10 -13 26v411q-1 -5 -3 -9.5t-6 -8.5l-420 -416q-3 -4 -7.5 -6t-8.5 -2.5t-8.5 0t-8.5 2t-7 4.5t-5.5 6.5t-4 8.5t-1.5 10v832
q0 21 18.5 29.5t32.5 -6.5zM992 832q13 0 22.5 -9.5t9.5 -22.5v-832q0 -13 -9.5 -22.5t-22.5 -9.5t-22.5 9.5t-9.5 22.5v832q0 13 9.5 22.5t22.5 9.5z" />
    <glyph glyph-name="uniE613" unicode="&#xe613;" 
d="M973 823l-420 -416q-3 -4 -5.5 -8.5t-3.5 -9.5v411q0 21 -18 29.5t-33 -6.5l-419 -416q-10 -9 -10 -22.5t10 -23.5l419 -416q18 -18 38 -3q13 9 13 26v411q1 -5 3 -9.5t6 -8.5l420 -416q18 -18 38 -3q13 9 13 26v832q0 14 -9 23t-20.5 9t-21.5 -9zM32 832
q-13 0 -22.5 -9.5t-9.5 -22.5v-832q0 -13 9.5 -22.5t22.5 -9.5t22.5 9.5t9.5 22.5v832q0 13 -9.5 22.5t-22.5 9.5z" />
    <glyph glyph-name="uniE614" unicode="&#xe614;" 
d="M225 896q13 0 22.5 -10.5t9.5 -26.5v-475q0 4 1 7.5t2.5 6.5t3.5 6t5 6l558 476q19 16 43.5 7t24.5 -33v-952q0 -24 -24.5 -33t-43.5 7l-558 476q-12 11 -12 26v-475q0 -10 -4.5 -18.5t-11.5 -13.5t-16 -5q-13 0 -22.5 10.5t-9.5 26.5v951q0 15 9.5 25.5t22.5 10.5z" />
    <glyph glyph-name="uniE615" unicode="&#xe615;" 
d="M863 896q-13 0 -22.5 -10.5t-9.5 -26.5v-475q0 15 -12 26l-558 476q-19 16 -43.5 7t-24.5 -33v-952q0 -24 24.5 -33t43.5 7l558 476q12 10 12 26v-475q0 -16 9.5 -26.5t22.5 -10.5t22.5 10.5t9.5 26.5v951q0 15 -9.5 25.5t-22.5 10.5z" />
    <glyph glyph-name="uniE616" unicode="&#xe616;" 
d="M512 832q30 0 59.5 -4t58.5 -12t56 -19q81 -34 143 -96q20 -21 38 -43.5t32.5 -47.5t25.5 -52q35 -83 35 -174t-35 -174q-34 -81 -96 -143q-16 -15 -32.5 -29t-34.5 -26t-37 -22t-39 -19q-83 -35 -174 -35t-174 35q-81 34 -143 96t-96 143q-35 83 -35 174t35 174
q34 81 96 143t143 96q83 35 174 35zM512 896q-139 0 -257 -68.5t-186.5 -186.5t-68.5 -257t68.5 -257t186.5 -186.5t257 -68.5t257 68.5t186.5 186.5t68.5 257t-68.5 257t-186.5 186.5t-257 68.5zM694 406l-256 258q-5 5 -11 7t-12 2t-12 -2t-11 -7q-9 -9 -9 -22.5t9 -22.5
l235 -236l-234 -233q-9 -9 -9 -22.5t9 -22.5q10 -10 23 -10t23 10l256 256q6 6 8 14t0 16.5t-9 14.5z" />
    <glyph glyph-name="uniE617" unicode="&#xe617;" 
d="M512 832q30 0 59.5 -4t58.5 -12t56 -19q81 -34 143 -96q20 -21 38 -43.5t32.5 -47.5t25.5 -52q35 -83 35 -174t-35 -174q-34 -81 -96 -143q-16 -15 -32.5 -29t-34.5 -26t-37 -22t-39 -19q-83 -35 -174 -35t-174 35q-81 34 -143 96t-96 143q-35 83 -35 174t35 174
q34 81 96 143t143 96q83 35 174 35zM512 896q-139 0 -257 -68.5t-186.5 -186.5t-68.5 -257t68.5 -257t186.5 -186.5t257 -68.5t257 68.5t186.5 186.5t68.5 257t-68.5 257t-186.5 186.5t-257 68.5zM534 201l258 257q9 10 9 23t-9 23q-4 3 -8.5 5.5t-9.5 3t-10 0t-9.5 -3
t-8.5 -5.5l-235 -235l-233 233q-5 5 -11 7.5t-12 2.5t-12 -2.5t-11 -7.5q-4 -4 -6.5 -10t-2.5 -12t2.5 -12t6.5 -11l256 -256q10 -9 23 -9t23 9z" />
    <glyph glyph-name="uniE618" unicode="&#xe618;" 
d="M512 832q30 0 59.5 -4t58.5 -12t56 -19q81 -34 143 -96q20 -21 38 -43.5t32.5 -47.5t25.5 -52q35 -83 35 -174t-35 -174q-34 -81 -96 -143q-16 -15 -32.5 -29t-34.5 -26t-37 -22t-39 -19q-83 -35 -174 -35t-174 35q-81 34 -143 96t-96 143q-35 83 -35 174t35 174
q34 81 96 143t143 96q83 35 174 35zM512 896q-139 0 -257 -68.5t-186.5 -186.5t-68.5 -257t68.5 -257t186.5 -186.5t257 -68.5t257 68.5t186.5 186.5t68.5 257t-68.5 257t-186.5 186.5t-257 68.5zM534 566l258 -256q9 -10 9 -23t-9 -23q-4 -3 -8.5 -5.5t-9.5 -3t-10 0
t-9.5 3t-8.5 5.5l-235 235l-233 -234q-7 -6 -15 -8t-16.5 0t-14.5 8q-9 10 -9 23t9 22l256 256q10 10 23 10t23 -10z" />
    <glyph glyph-name="uniE619" unicode="&#xe619;" 
d="M512 832q30 0 59.5 -4t58.5 -12t56 -19q81 -34 143 -96q20 -21 38 -43.5t32.5 -47.5t25.5 -52q35 -83 35 -174t-35 -174q-34 -81 -96 -143q-16 -15 -32.5 -29t-34.5 -26t-37 -22t-39 -19q-83 -35 -174 -35t-174 35q-81 34 -143 96t-96 143q-35 83 -35 174t35 174
q34 81 96 143t143 96q83 35 174 35zM512 896q-139 0 -257 -68.5t-186.5 -186.5t-68.5 -257t68.5 -257t186.5 -186.5t257 -68.5t257 68.5t186.5 186.5t68.5 257t-68.5 257t-186.5 186.5t-257 68.5zM330 406l257 258q10 9 23 9t23 -9q9 -9 9 -22.5t-9 -22.5l-235 -236
l234 -233q4 -5 6.5 -11t2.5 -12t-2.5 -12t-6.5 -10q-10 -10 -23 -10t-23 10l-256 256q-3 3 -5 6.5t-3 7.5t-1 8.5t1 8t3 7.5t5 7z" />
    <glyph glyph-name="uniE61A" unicode="&#xe61a;" 
d="M512 896q-139 0 -257 -68.5t-186.5 -186.5t-68.5 -257t68.5 -257t186.5 -186.5t257 -68.5t257 68.5t186.5 186.5t68.5 257t-68.5 257t-186.5 186.5t-257 68.5zM695 361l-256 -256q-5 -5 -11 -7.5t-12 -2.5t-12 2.5t-11 7.5q-6 6 -8 14t0 16.5t8 14.5l234 233l-235 236
q-9 9 -9 22.5t9.5 22.5t22.5 9t23 -9l256 -258q10 -9 10 -22.5t-9 -22.5z" />
    <glyph glyph-name="uniE61B" unicode="&#xe61b;" 
d="M512 896q-139 0 -257 -68.5t-186.5 -186.5t-68.5 -257t68.5 -257t186.5 -186.5t257 -68.5t257 68.5t186.5 186.5t68.5 257t-68.5 257t-186.5 186.5t-257 68.5zM632 150q4 -5 6.5 -11t2.5 -12t-2.5 -12t-6.5 -10q-10 -10 -23 -10t-23 10l-256 256q-6 6 -8 14t0 16.5
t8 14.5l257 258q6 6 14.5 8.5t16.5 0t15 -8.5q9 -9 9 -22.5t-9 -22.5l-235 -236z" />
    <glyph glyph-name="uniE61C" unicode="&#xe61c;" 
d="M512 896q-139 0 -257 -68.5t-186.5 -186.5t-68.5 -257t68.5 -257t186.5 -186.5t257 -68.5t257 68.5t186.5 186.5t68.5 257t-68.5 257t-186.5 186.5t-257 68.5zM792 264q-4 -3 -8.5 -5.5t-9.5 -3t-10 0t-9.5 3t-8.5 5.5l-235 235l-233 -234q-7 -6 -15 -8t-16.5 0t-14.5 8
q-9 10 -9 23t9 22l256 256q10 10 23 10t23 -10l258 -256q9 -10 9 -23t-9 -23z" />
    <glyph glyph-name="uniE61D" unicode="&#xe61d;" 
d="M512 896q-139 0 -257 -68.5t-186.5 -186.5t-68.5 -257t68.5 -257t186.5 -186.5t257 -68.5t257 68.5t186.5 186.5t68.5 257t-68.5 257t-186.5 186.5t-257 68.5zM792 458l-258 -257q-10 -9 -23 -9t-23 9l-256 256q-9 10 -9 23t9.5 22.5t22.5 9.5t23 -10l233 -233l235 235
q10 9 23 9t23 -9q4 -5 6.5 -11t2.5 -12t-2.5 -12t-6.5 -11z" />
    <glyph glyph-name="uniE61E" unicode="&#xe61e;" 
d="M448 188l231 196l-231 196v-392zM512 896q-139 0 -257 -68.5t-186.5 -186.5t-68.5 -257t68.5 -257t186.5 -186.5t257 -68.5t257 68.5t186.5 186.5t68.5 257t-68.5 257t-186.5 186.5t-257 68.5zM760 368l-335 -285q-3 -2 -5.5 -3.5t-5.5 -2t-6 -0.5q-9 0 -16.5 6t-7.5 15
v572q0 9 7.5 15.5t17 6.5t16.5 -7l335 -285q4 -3 6 -7.5t2 -8.5t-2 -8.5t-6 -7.5z" />
    <glyph glyph-name="uniE61F" unicode="&#xe61f;" 
d="M512 832q30 0 59.5 -4t58.5 -12t56 -19q81 -34 143 -96q20 -21 38 -43.5t32.5 -47.5t25.5 -52q35 -83 35 -174t-35 -174q-34 -81 -96 -143q-16 -15 -32.5 -29t-34.5 -26t-37 -22t-39 -19q-83 -35 -174 -35t-174 35q-81 34 -143 96t-96 143q-35 83 -35 174t35 174
q34 81 96 143t143 96q83 35 174 35zM512 896q-139 0 -257 -68.5t-186.5 -186.5t-68.5 -257t68.5 -257t186.5 -186.5t257 -68.5t257 68.5t186.5 186.5t68.5 257t-68.5 257t-186.5 186.5t-257 68.5zM448 580l231 -196l-231 -196v392zM408 692q-9 0 -16.5 -6.5t-7.5 -15.5v-572
q0 -9 7.5 -15t17 -6t16.5 6l335 285q8 7 8 16t-8 16l-335 285q-7 7 -17 7z" />
    <glyph glyph-name="uniE620" unicode="&#xe620;" 
d="M282 167q9 9 9 22.5t-9 22.5l-172 172h882q13 0 22.5 9.5t9.5 22.5t-9.5 22.5t-22.5 9.5h-883l172 172q4 4 6.5 8.5t3 9.5t0 9.5t-3 9.5t-6.5 8q-9 10 -22.5 10t-22.5 -10l-227 -226q-3 -3 -5.5 -8t-3 -9.5t0 -9.5t3 -9.5t5.5 -8.5l228 -227q9 -9 22.5 -9t22.5 9z" />
    <glyph glyph-name="uniE621" unicode="&#xe621;" horiz-adv-x="1025" 
d="M742 167q-9 9 -9 22.5t9 22.5l172 172h-882q-13 0 -22.5 9.5t-9.5 22.5t9.5 22.5t22.5 9.5h883l-172 172q-5 5 -7.5 10.5t-2.5 12t2.5 12.5t7.5 10q9 10 22.5 10t22.5 -10l227 -226q9 -9 9 -22.5t-9 -22.5l-228 -227q-9 -9 -22.5 -9t-22.5 9z" />
    <glyph glyph-name="uniE622" unicode="&#xe622;" 
d="M793 614q-3 -3 -6 -5t-6.5 -3t-7 -1.5t-7 0t-6.5 1.5t-6.5 3t-5.5 5l-172 172v-882q0 -13 -9.5 -22.5t-22.5 -9.5q-9 0 -16 4.5t-11.5 11.5t-4.5 16v883l-172 -172q-9 -10 -22.5 -10t-22.5 10q-10 9 -10 22.5t10 22.5l226 227q9 9 22.5 9t22.5 -9l227 -228q5 -4 7 -10
t2 -12t-2 -12t-7 -11z" />
    <glyph glyph-name="uniE623" unicode="&#xe623;" 
d="M793 154q-9 9 -22.5 9t-22.5 -9l-172 -172v882q0 13 -9.5 22.5t-22.5 9.5t-22.5 -9.5t-9.5 -22.5v-883l-172 172q-9 10 -22.5 10t-22.5 -10q-10 -9 -10 -22.5t10 -22.5l226 -227q9 -9 22.5 -9t22.5 9l227 228q5 4 7 10t2 12t-2 12t-7 11z" />
    <glyph glyph-name="uniE624" unicode="&#xe624;" 
d="M630 887q10 -10 10 -23t-10 -23l-482 -457l482 -457q10 -10 10 -23t-10 -23q-10 -9 -24 -9t-24 9l-506 480q-10 10 -10 23t10 23l506 480q10 9 24 9t24 -9zM886 887q10 -10 10 -23t-10 -23l-482 -457l482 -457q10 -10 10 -23t-10 -23q-10 -9 -24 -9t-24 9l-506 480
q-10 10 -10 23t10 23l506 480q10 9 24 9t24 -9z" />
    <glyph glyph-name="uniE625" unicode="&#xe625;" 
d="M332 887q-10 -10 -10 -23t10 -23l482 -457l-482 -457q-10 -10 -10 -23t10 -23q10 -9 24 -9t24 9l506 480q10 10 10 23t-10 23l-506 480q-10 9 -24 9t-24 -9zM76 887q-10 -10 -10 -23t10 -23l482 -457l-482 -457q-10 -10 -10 -23t10 -23q10 -9 24 -9t24 9l506 480
q7 6 9 14.5t0 16.5t-9 15l-506 480q-10 9 -24 9t-24 -9z" />
    <glyph glyph-name="uniE626" unicode="&#xe626;" 
d="M993 384q-4 0 -8.5 -1.5t-8 -4t-6.5 -6t-4.5 -8t-2.5 -8.5q-4 -77 -34 -148q-35 -81 -97.5 -143.5t-143.5 -96.5q-83 -36 -175.5 -36t-175.5 36q-82 34 -144.5 96.5t-96.5 143.5q-35 84 -35 176t35 176q35 81 97 143.5t144 96.5q83 36 175 36q112 0 211 -52q12 -6 23 -13
t22 -14.5t21.5 -15.5t20 -16.5t19.5 -17.5l-118 21q-8 1 -16 -2t-13.5 -9.5t-7.5 -14.5q-2 -13 5.5 -24t20.5 -13l189 -34q13 -2 24 5.5t13 20.5l34 189q2 13 -5.5 23.5t-20.5 13.5q-13 2 -24 -5.5t-13 -20.5l-20 -113q-28 28 -59.5 51.5t-66.5 41.5q-111 59 -239 59
q-104 0 -199 -40q-92 -39 -162 -110q-71 -71 -110 -163q-41 -95 -41 -199t41 -199q39 -92 109 -163q72 -71 163 -110q95 -40 199 -40q52 0 102 10t98 30q92 39 162 110q71 71 110 163q17 40 27 82t12 85q1 9 -3 16t-11 11.5t-16 4.5z" />
    <glyph glyph-name="uniE627" unicode="&#xe627;" 
d="M887 696l-191 191q-10 9 -23 9t-23 -9q-4 -5 -6.5 -11t-2.5 -12t2.5 -12t6.5 -11l137 -137l-755 1q-13 0 -22.5 -9.5t-9.5 -22.5v-256q0 -9 4.5 -16.5t11.5 -11.5t16 -4q13 0 22.5 9.5t9.5 22.5v223h722l-135 -135q-3 -3 -4.5 -5.5t-3 -5.5t-2 -6t-0.5 -6t0.5 -6t2 -6
t3 -5.5t4.5 -5.5q2 -2 4.5 -4t5.5 -3t6 -1.5t6 -0.5t6 0.5t6 1.5t6 3t5 4l191 191q9 10 9 23t-9 23zM137 72l191 -191q5 -4 11 -6.5t12 -2.5t12 2.5t11 6.5q9 10 9 23t-9 23l-137 137l755 -1q4 0 8.5 1t8 3.5t6.5 5.5t5 6.5t3 7.5t1 8v256q0 13 -9.5 22.5t-22.5 9.5
q-9 0 -16 -4t-11.5 -11.5t-4.5 -16.5v-223h-722l136 135q9 10 9 23t-9 23q-7 6 -15 8t-16.5 0t-14.5 -8l-191 -191q-4 -4 -6 -8.5t-3 -9.5t0 -10t3 -9.5t6 -8.5z" />
    <glyph glyph-name="uniE628" unicode="&#xe628;" 
d="M9 -119q4 -3 8.5 -5.5t9.5 -3t10 0t9.5 3t8.5 5.5l335 335v-243q0 -8 4 -15.5t11.5 -12t16.5 -4.5q13 0 22.5 9.5t9.5 22.5v322q0 8 -4.5 15.5t-12 12t-15.5 4.5l-320 -1q-13 0 -22.5 -9.5t-9.5 -22.5q0 -9 4 -16t11.5 -11.5t16.5 -4.5h243l-336 -335q-9 -10 -9 -23
t9 -23zM1015 887q-4 3 -8.5 5.5t-9.5 3t-10 0t-9.5 -3t-8.5 -5.5l-335 -335v243q0 13 -9 22.5t-23 9.5q-13 0 -22.5 -9.5t-9.5 -22.5v-322q0 -13 9.5 -22.5t22.5 -9.5l320 1q9 0 16.5 4t11.5 11.5t4 16.5q0 13 -9.5 22.5t-22.5 9.5h-243l336 335q2 2 3.5 4.5t2.5 5t2 5.5
t1 6v4q0 3 -1 6t-2 5.5t-2.5 5t-3.5 4.5z" />
    <glyph glyph-name="uniE629" unicode="&#xe629;" 
d="M445 317q-10 10 -23 10t-23 -10l-335 -335v243q0 14 -9 23t-23 9q-13 0 -22.5 -9t-9.5 -23v-321q0 -13 9.5 -22.5t22.5 -9.5h320q5 0 10 2t9 5t7 6.5t4.5 8.5t1.5 10q0 9 -4 16.5t-11.5 11.5t-16.5 4h-243l336 336l4 6q2 3 3 6.5t1.5 7t0 7t-1.5 6.5t-3 6.5t-4 5.5z
M580 451q9 -10 22.5 -10t22.5 10l335 335v-243q0 -14 9.5 -23t22.5 -9t22.5 9t9.5 23v321q0 13 -9.5 22.5t-22.5 9.5h-320q-13 0 -22.5 -9.5t-9.5 -22.5q0 -14 9.5 -23t22.5 -9h243l-335 -336q-6 -6 -8.5 -14.5t0 -16.5t8.5 -14z" />
    <glyph glyph-name="uniE62A" unicode="&#xe62a;" 
d="M896 673q0 13 -9 22.5t-23 9.5l-755 -1l137 137q9 10 9 23t-9 23q-9 9 -22.5 9t-22.5 -9l-192 -191q-9 -10 -9 -23t9 -23l194 -193q6 -6 14 -8t16.5 0t14.5 8q9 10 9 23t-9 23l-138 137h722v-704h-352q-13 0 -22.5 -9.5t-9.5 -22.5t9.5 -22.5t22.5 -9.5h384q14 0 23 9.5
t9 22.5v769z" />
    <glyph glyph-name="uniE62B" unicode="&#xe62b;" 
d="M203 -73l482 457l-482 457q-10 10 -10 23t10 22.5t24 9.5t24 -9l506 -480q10 -10 10 -23t-10 -23l-506 -480q-10 -9 -24 -9t-24 9.5t-10 22.5t10 23zM800 896q13 0 22.5 -9.5t9.5 -22.5v-960q0 -13 -9.5 -22.5t-22.5 -9.5t-22.5 9.5t-9.5 22.5v960q0 13 9.5 22.5
t22.5 9.5z" />
    <glyph glyph-name="uniE62C" unicode="&#xe62c;" 
d="M822 -73l-482 457l482 457q7 6 9 14.5t0 16.5t-9 15q-10 9 -24 9t-24 -9l-506 -480q-10 -10 -10 -23t10 -23l506 -480q5 -4 11.5 -6.5t13 -2.5t12.5 2.5t11 6.5q7 7 9 15t0 16.5t-9 14.5zM225 896q-9 0 -16 -4.5t-11.5 -11.5t-4.5 -16v-960q0 -5 1.5 -10t4.5 -9t7 -7
t9 -4.5t10 -1.5q13 0 22.5 9.5t9.5 22.5v960q0 13 -9.5 22.5t-22.5 9.5z" />
    <glyph glyph-name="uniE62D" unicode="&#xe62d;" 
d="M874 746q-9 9 -22.5 9t-22.5 -9l-317 -317l-317 317q-9 9 -22.5 9t-22.5 -9t-9 -22.5t9 -22.5l317 -317l-317 -317q-9 -9 -9 -22.5t9 -22.5q6 -6 14.5 -8.5t16.5 0t14 8.5l317 317l317 -317q9 -9 22.5 -9t22.5 9t9 22.5t-9 22.5l-317 317l317 317q6 6 8.5 14t0 16.5
t-8.5 14.5z" />
    <glyph glyph-name="uniE62E" unicode="&#xe62e;" 
d="M1015 804q-4 4 -8.5 6t-9.5 3t-10 0t-9.5 -3t-8.5 -6l-644 -648l-269 267q-10 10 -23 10t-23 -10q-4 -4 -6.5 -10t-2.5 -12t2.5 -12t6.5 -11l292 -290q5 -5 11 -7t12 -2t12 2t11 7l667 671q9 9 9 22.5t-9 22.5z" />
    <glyph glyph-name="uniE62F" unicode="&#xe62f;" 
d="M512 896q-104 0 -199 -41t-163 -109t-109 -163t-41 -199q0 -83 26 -161t73.5 -141t110.5 -110.5t141 -73.5t161 -26q104 0 199 41t163 109t109 163t41 199q0 83 -26 161t-73.5 141t-110.5 110.5t-141 73.5t-161 26zM821 520l-415 -405q-10 -9 -23 -9t-23 9l-158 152
q-5 5 -7.5 11t-2.5 12t2.5 12t7.5 10q9 10 22.5 10t22.5 -10l136 -129l393 382q9 9 22.5 9t22.5 -9q4 -4 6.5 -8.5t3 -9.5t0 -10t-3 -9.5t-6.5 -7.5z" />
    <glyph glyph-name="uniE630" unicode="&#xe630;" 
d="M821 565q-9 9 -22.5 9t-22.5 -9l-393 -382l-136 129q-9 10 -22.5 10t-22.5 -10q-10 -9 -10 -22.5t10 -22.5l158 -152q5 -4 11 -6.5t12 -2.5t12 2.5t11 6.5l415 405q10 9 10 22.5t-10 22.5zM512 832q91 0 174 -36q80 -33 142 -96q16 -15 29.5 -31.5t25.5 -34.5t22.5 -37
t18.5 -39q18 -41 27 -85t9 -89q0 -91 -36 -174q-33 -80 -96 -142q-62 -63 -142 -96q-83 -36 -174 -36q-45 0 -89 9t-85 27q-40 16 -76 40.5t-66 55.5q-62 61 -96 142q-36 83 -36 174t36 174q33 80 96 142q30 31 66 55.5t76 40.5q41 18 85 27t89 9zM512 896q-104 0 -199 -41
t-163 -109t-109 -163t-41 -199q0 -83 26 -161t73.5 -141t110.5 -110.5t141 -73.5t161 -26q104 0 199 41t163 109t109 163t41 199q0 83 -26 161t-73.5 141t-110.5 110.5t-141 73.5t-161 26z" />
    <glyph glyph-name="uniE631" unicode="&#xe631;" 
d="M512 896q-139 0 -257 -68.5t-186.5 -186.5t-68.5 -257t68.5 -257t186.5 -186.5t257 -68.5t257 68.5t186.5 186.5t68.5 257t-68.5 257t-186.5 186.5t-257 68.5zM753 193q9 -10 9.5 -23t-8.5 -23q-7 -6 -15 -8t-16.5 0t-14.5 8l-196 192l-196 -192q-10 -9 -23 -9t-23 10
q-6 6 -8 14t0.5 16.5t8.5 14.5l195 191l-195 191q-5 5 -7.5 11t-2.5 12t2.5 12t6.5 11q4 3 8.5 5.5t9.5 3t10 0t9.5 -2.5t8.5 -6l196 -192l196 192q6 6 14.5 8t16.5 0t15 -9q6 -6 8 -14t-0.5 -16.5t-8.5 -14.5l-195 -191z" />
    <glyph glyph-name="uniE632" unicode="&#xe632;" 
d="M558 384l195 191q4 4 6 8.5t3 9.5t0.5 10t-3 9.5t-5.5 8.5q-7 6 -15 8t-16.5 0t-14.5 -8l-196 -192l-196 192q-6 6 -14.5 8t-16.5 0t-15 -9q-6 -6 -8 -14t0.5 -16.5t8.5 -14.5l195 -191l-195 -191q-9 -10 -9.5 -23t8.5 -23q4 -3 8.5 -5.5t9.5 -3t10 0t9.5 2.5t8.5 6
l196 192l196 -192q6 -6 14.5 -8t16.5 0t15 9q6 6 8 14t-0.5 16.5t-8.5 14.5zM512 832q30 0 59.5 -4t58.5 -12t56 -19q81 -34 143 -96q20 -21 38 -43.5t32.5 -47.5t25.5 -52q35 -83 35 -174t-35 -174q-34 -81 -96 -143q-16 -15 -32.5 -29t-34.5 -26t-37 -22t-39 -19
q-83 -35 -174 -35t-174 35q-81 34 -143 96t-96 143q-35 83 -35 174t35 174q34 81 96 143t143 96q83 35 174 35zM512 896q-139 0 -257 -68.5t-186.5 -186.5t-68.5 -257t68.5 -257t186.5 -186.5t257 -68.5t257 68.5t186.5 186.5t68.5 257t-68.5 257t-186.5 186.5t-257 68.5z
" />
    <glyph glyph-name="uniE633" unicode="&#xe633;" 
d="M479 64q-13 0 -22.5 9.5t-9.5 22.5v768q0 13 9.5 22.5t22.5 9.5t22.5 -9.5t9.5 -22.5v-768q0 -13 -9.5 -22.5t-22.5 -9.5zM478 -128q-13 0 -22.5 9.5t-9.5 22.5t9.5 22.5t22.5 9.5t22.5 -9.5t9.5 -22.5t-9.5 -22.5t-22.5 -9.5z" />
    <glyph glyph-name="uniE634" unicode="&#xe634;" 
d="M512 896q-139 0 -257 -68.5t-186.5 -186.5t-68.5 -257t68.5 -257t186.5 -186.5t257 -68.5t257 68.5t186.5 186.5t68.5 257t-68.5 257t-186.5 186.5t-257 68.5zM544 96q0 -13 -9.5 -22.5t-22.5 -9.5t-22.5 9.5t-9.5 22.5t9.5 22.5t22.5 9.5t22.5 -9.5t9.5 -22.5zM544 224
q0 -13 -9.5 -22.5t-22.5 -9.5t-22.5 9.5t-9.5 22.5v448q0 13 9.5 22.5t22.5 9.5t22.5 -9.5t9.5 -22.5v-448z" />
    <glyph glyph-name="uniE635" unicode="&#xe635;" 
d="M512 192q-13 0 -22.5 9.5t-9.5 22.5v448q0 13 9.5 22.5t22.5 9.5t22.5 -9.5t9.5 -22.5v-448q0 -13 -9.5 -22.5t-22.5 -9.5zM512 64q-13 0 -22.5 9.5t-9.5 22.5t9.5 22.5t22.5 9.5t22.5 -9.5t9.5 -22.5t-9.5 -22.5t-22.5 -9.5zM512 832q30 0 59.5 -4t58.5 -12t56 -19
q81 -34 143 -96q20 -21 38 -43.5t32.5 -47.5t25.5 -52q35 -83 35 -174t-35 -174q-34 -81 -96 -143q-16 -15 -32.5 -29t-34.5 -26t-37 -22t-39 -19q-83 -35 -174 -35t-174 35q-81 34 -143 96t-96 143q-35 83 -35 174t35 174q34 81 96 143t143 96q83 35 174 35zM512 896
q-139 0 -257 -68.5t-186.5 -186.5t-68.5 -257t68.5 -257t186.5 -186.5t257 -68.5t257 68.5t186.5 186.5t68.5 257t-68.5 257t-186.5 186.5t-257 68.5z" />
    <glyph glyph-name="uniE636" unicode="&#xe636;" 
d="M480 896q13 0 22.5 -9.5t9.5 -22.5t-9.5 -22.5t-22.5 -9.5t-22.5 9.5t-9.5 22.5t9.5 22.5t22.5 9.5zM512 672q0 14 -9.5 23t-22.5 9h-32h-96q-13 0 -22.5 -9t-9.5 -23q0 -13 9.5 -22.5t22.5 -9.5h96v-704h-96q-13 0 -22.5 -9.5t-9.5 -22.5t9.5 -22.5t22.5 -9.5h96h64h95
q13 0 23 9.5t10 22.5t-10 22.5t-23 9.5h-95v736z" />
    <glyph glyph-name="uniE637" unicode="&#xe637;" 
d="M512 896q-139 0 -257 -68.5t-186.5 -186.5t-68.5 -257t68.5 -257t186.5 -186.5t257 -68.5t257 68.5t186.5 186.5t68.5 257t-68.5 257t-186.5 186.5t-257 68.5zM512 704q13 0 22.5 -9.5t9.5 -22.5t-9.5 -22.5t-22.5 -9.5t-22.5 9.5t-9.5 22.5t9.5 22.5t22.5 9.5zM608 64
h-66h-64h-62q-8 0 -15.5 4.5t-12 11.5t-4.5 16q0 13 9.5 22.5t22.5 9.5h62v322h-62q-9 0 -16.5 4.5t-11.5 12t-4 15.5q0 14 9 23t23 9h62h32q14 0 23 -9t9 -23v-354h66q13 0 22.5 -9.5t9.5 -22.5q0 -9 -4.5 -16t-12 -11.5t-15.5 -4.5z" />
    <glyph glyph-name="uniE638" unicode="&#xe638;" 
d="M512 704q13 0 22.5 -9.5t9.5 -22.5t-9.5 -22.5t-22.5 -9.5t-22.5 9.5t-9.5 22.5t9.5 22.5t22.5 9.5zM608 128h-66v354q0 14 -9 23t-23 9h-32h-62q-9 0 -16.5 -4t-11.5 -11.5t-4 -16t4 -16t11.5 -12t16.5 -4.5h62v-322h-62q-8 0 -15.5 -4.5t-12 -11.5t-4.5 -16
q0 -13 9.5 -22.5t22.5 -9.5h62h64h66q13 0 22.5 9.5t9.5 22.5t-9.5 22.5t-22.5 9.5zM512 832q30 0 59.5 -4t58.5 -12t56 -19q81 -34 143 -96q20 -21 38 -43.5t32.5 -47.5t25.5 -52q35 -83 35 -174t-35 -174q-34 -81 -96 -143q-16 -15 -32.5 -29t-34.5 -26t-37 -22t-39 -19
q-83 -35 -174 -35t-174 35q-81 34 -143 96t-96 143q-35 83 -35 174t35 174q34 81 96 143t143 96q83 35 174 35zM512 896q-139 0 -257 -68.5t-186.5 -186.5t-68.5 -257t68.5 -257t186.5 -186.5t257 -68.5t257 68.5t186.5 186.5t68.5 257t-68.5 257t-186.5 186.5t-257 68.5z
" />
    <glyph glyph-name="uniE639" unicode="&#xe639;" 
d="M512 896q-139 0 -257 -68.5t-186.5 -186.5t-68.5 -257t68.5 -257t186.5 -186.5t257 -68.5t257 68.5t186.5 186.5t68.5 257t-68.5 257t-186.5 186.5t-257 68.5zM832 417q0 -13 -9.5 -22.5t-22.5 -9.5h-576q-13 0 -22.5 9.5t-9.5 22.5t9.5 22.5t22.5 9.5h576
q13 0 22.5 -9.5t9.5 -22.5z" />
    <glyph glyph-name="uniE63A" unicode="&#xe63a;" 
d="M512 832q30 0 59.5 -4t58.5 -12t56 -19q81 -34 143 -96q20 -21 38 -43.5t32.5 -47.5t25.5 -52q35 -83 35 -174t-35 -174q-34 -81 -96 -143q-16 -15 -32.5 -29t-34.5 -26t-37 -22t-39 -19q-83 -35 -174 -35t-174 35q-81 34 -143 96t-96 143q-35 83 -35 174t35 174
q34 81 96 143t143 96q83 35 174 35zM512 896q-139 0 -257 -68.5t-186.5 -186.5t-68.5 -257t68.5 -257t186.5 -186.5t257 -68.5t257 68.5t186.5 186.5t68.5 257t-68.5 257t-186.5 186.5t-257 68.5zM800 385h-576q-13 0 -22.5 9.5t-9.5 22.5t9.5 22.5t22.5 9.5h576
q13 0 22.5 -9.5t9.5 -22.5t-9.5 -22.5t-22.5 -9.5z" />
    <glyph glyph-name="uniE63B" unicode="&#xe63b;" 
d="M34 448h956q14 0 24 -9.5t10 -22.5t-10 -22.5t-24 -9.5h-956q-14 0 -24 9.5t-10 22.5t10 22.5t24 9.5z" />
    <glyph glyph-name="uniE63C" unicode="&#xe63c;" 
d="M512 832q30 0 59.5 -4t58.5 -12t56 -19q81 -34 143 -96q20 -21 38 -43.5t32.5 -47.5t25.5 -52q35 -83 35 -174t-35 -174q-34 -81 -96 -143q-16 -15 -32.5 -29t-34.5 -26t-37 -22t-39 -19q-83 -35 -174 -35t-174 35q-81 34 -143 96t-96 143q-35 83 -35 174t35 174
q34 81 96 143t143 96q83 35 174 35zM512 896q-139 0 -257 -68.5t-186.5 -186.5t-68.5 -257t68.5 -257t186.5 -186.5t257 -68.5t257 68.5t186.5 186.5t68.5 257t-68.5 257t-186.5 186.5t-257 68.5zM800 416h-256v256q0 13 -9.5 22.5t-22.5 9.5t-22.5 -9.5t-9.5 -22.5v-256
h-256q-13 0 -22.5 -9.5t-9.5 -22.5t9.5 -22.5t22.5 -9.5h256v-256q0 -13 9.5 -22.5t22.5 -9.5t22.5 9.5t9.5 22.5v256h256q13 0 22.5 9.5t9.5 22.5t-9.5 22.5t-22.5 9.5z" />
    <glyph glyph-name="uniE63D" unicode="&#xe63d;" 
d="M512 896q-139 0 -257 -68.5t-186.5 -186.5t-68.5 -257t68.5 -257t186.5 -186.5t257 -68.5t257 68.5t186.5 186.5t68.5 257t-68.5 257t-186.5 186.5t-257 68.5zM832 384q0 -13 -9.5 -22.5t-22.5 -9.5h-256v-256q0 -13 -9.5 -22.5t-22.5 -9.5t-22.5 9.5t-9.5 22.5v256h-256
q-13 0 -22.5 9.5t-9.5 22.5t9.5 22.5t22.5 9.5h256v256q0 13 9.5 22.5t22.5 9.5t22.5 -9.5t9.5 -22.5v-256h256q13 0 22.5 -9.5t9.5 -22.5z" />
    <glyph glyph-name="uniE63E" unicode="&#xe63e;" 
d="M990 448h-446v414q0 9 -4.5 17t-11.5 12.5t-16 4.5q-13 0 -22.5 -10t-9.5 -24v-414h-446q-14 0 -24 -9.5t-10 -22.5t10 -22.5t24 -9.5h446v-478q0 -7 2.5 -13t7 -11t10 -7.5t12.5 -2.5q13 0 22.5 10t9.5 24v478h446q14 0 24 9.5t10 22.5t-10 22.5t-24 9.5z" />
    <glyph glyph-name="uniE63F" unicode="&#xe63f;" 
d="M230 91q9 -9 22.5 -9t22.5 9q10 10 10 23t-10 23l-184 184h901q13 0 22.5 9.5t9.5 22.5t-9.5 22.5t-22.5 9.5h-960q-13 0 -22.5 -9.5t-9.5 -22.5v-18q0 -14 9 -23z" />
    <glyph glyph-name="uniE640" unicode="&#xe640;" 
d="M794 678q-4 3 -8.5 5.5t-9.5 3t-10 0t-9.5 -3t-7.5 -5.5q-5 -5 -7.5 -11t-2.5 -12t2.5 -12t7.5 -11l184 -184h-901q-13 0 -22.5 -9.5t-9.5 -22.5t9.5 -22.5t22.5 -9.5h960q13 0 22.5 9.5t9.5 22.5v18q0 7 -2.5 12.5t-6.5 10.5z" />
    <glyph glyph-name="uniE641" unicode="&#xe641;" 
d="M230 26q9 -9 22.5 -9t22.5 9q10 10 10 23t-10 23l-184 184h901q13 0 22.5 9.5t9.5 22.5t-9.5 22.5t-22.5 9.5h-960q-13 0 -22.5 -9.5t-9.5 -22.5v-18q0 -7 2.5 -12.5t6.5 -10.5zM794 742q-4 3 -8.5 5.5t-9.5 3t-10 0t-9.5 -3t-7.5 -5.5q-4 -4 -6.5 -8.5t-3 -9.5t0 -10
t3 -9.5t6.5 -8.5l184 -184h-901q-13 0 -22.5 -9.5t-9.5 -22.5t9.5 -22.5t22.5 -9.5h960q13 0 22.5 9.5t9.5 22.5v18q0 7 -2.5 12.5t-6.5 10.5z" />
    <glyph glyph-name="uniE642" unicode="&#xe642;" 
d="M512 896q-139 0 -257 -68.5t-186.5 -186.5t-68.5 -257t68.5 -257t186.5 -186.5t257 -68.5t257 68.5t186.5 186.5t68.5 257t-68.5 257t-186.5 186.5t-257 68.5zM766 352q0 -13 -9 -22.5t-23 -9.5h-190q-13 0 -22.5 9.5t-9.5 22.5v319q0 13 9.5 22.5t22.5 9.5t22.5 -9.5
t9.5 -22.5v-287h158q14 0 23 -9.5t9 -22.5z" />
    <glyph glyph-name="uniE643" unicode="&#xe643;" 
d="M512 832q30 0 59.5 -4t58.5 -12t56 -19q81 -34 143 -96q20 -21 38 -43.5t32.5 -47.5t25.5 -52q35 -83 35 -174t-35 -174q-34 -81 -96 -143q-16 -15 -32.5 -29t-34.5 -26t-37 -22t-39 -19q-83 -35 -174 -35t-174 35q-81 34 -143 96t-96 143q-35 83 -35 174t35 174
q34 81 96 143t143 96q83 35 174 35zM512 896q-139 0 -257 -68.5t-186.5 -186.5t-68.5 -257t68.5 -257t186.5 -186.5t257 -68.5t257 68.5t186.5 186.5t68.5 257t-68.5 257t-186.5 186.5t-257 68.5zM734 384h-158v287q0 13 -9.5 22.5t-22.5 9.5t-22.5 -9.5t-9.5 -22.5v-319
q0 -13 9.5 -22.5t22.5 -9.5h190q14 0 23 9.5t9 22.5t-9 22.5t-23 9.5z" />
    <glyph glyph-name="uniE644" unicode="&#xe644;" 
d="M512 896q-139 0 -257 -68.5t-186.5 -186.5t-68.5 -257t68.5 -257t186.5 -186.5t257 -68.5t257 68.5t186.5 186.5t68.5 257t-68.5 257t-186.5 186.5t-257 68.5zM384 160q0 -13 -9.5 -22.5t-22.5 -9.5h-1q-13 0 -22 9.5t-9 22.5v448q0 9 4 16t11.5 11.5t15.5 4.5h1
q13 0 22 -9.5t9 -22.5zM704 160q0 -13 -9 -22.5t-22 -9.5h-1q-8 0 -15.5 4.5t-12 11.5t-4.5 16v448q0 7 3 12.5t7 10t10 7t12 2.5h1q6 0 12 -2.5t10 -7t6.5 -10t2.5 -12.5v-448z" />
    <glyph glyph-name="uniE645" unicode="&#xe645;" 
d="M352 128h-1q-13 0 -22 9.5t-9 22.5v448q0 9 4 16t11.5 11.5t15.5 4.5h1q13 0 22 -9.5t9 -22.5v-448q0 -24 -22 -31q-5 -1 -9 -1zM673 128h-1q-8 0 -15.5 4.5t-12 11.5t-4.5 16v448q0 7 3 12.5t7 10t10 7t12 2.5h1q6 0 12 -2.5t10 -7t6.5 -10t2.5 -12.5v-448
q0 -13 -9 -22.5t-22 -9.5zM512 832q30 0 59.5 -4t58.5 -12t56 -19q81 -34 143 -96q20 -21 38 -43.5t32.5 -47.5t25.5 -52q35 -83 35 -174t-35 -174q-34 -81 -96 -143q-16 -15 -32.5 -29t-34.5 -26t-37 -22t-39 -19q-83 -35 -174 -35t-174 35q-81 34 -143 96t-96 143
q-35 83 -35 174t35 174q34 81 96 143t143 96q83 35 174 35zM512 896q-139 0 -257 -68.5t-186.5 -186.5t-68.5 -257t68.5 -257t186.5 -186.5t257 -68.5t257 68.5t186.5 186.5t68.5 257t-68.5 257t-186.5 186.5t-257 68.5z" />
    <glyph glyph-name="uniE646" unicode="&#xe646;" 
d="M288 -128q-13 0 -22.5 9.5t-9.5 22.5v960q0 13 9.5 22.5t22.5 9.5t22.5 -9.5t9.5 -22.5v-960q0 -13 -9.5 -22.5t-22.5 -9.5zM734 -128q-13 0 -22.5 9.5t-9.5 22.5v960q0 13 9.5 22.5t22.5 9.5t22.5 -9.5t9.5 -22.5v-960q0 -13 -9.5 -22.5t-22.5 -9.5z" />
    <glyph glyph-name="uniE647" unicode="&#xe647;" 
d="M512 896q-139 0 -257 -68.5t-186.5 -186.5t-68.5 -257t68.5 -257t186.5 -186.5t257 -68.5t257 68.5t186.5 186.5t68.5 257t-68.5 257t-186.5 186.5t-257 68.5zM542 94q0 -13 -9 -22.5t-23 -9.5q-8 0 -15.5 4.5t-12 11.5t-4.5 16q0 7 3 13t7 10t10 6.5t12 2.5q5 0 9 -1
t7.5 -3t6.5 -5t5 -6.5t3 -7.5t1 -9zM608 314q-36 -19 -51 -35t-15 -46v-11q0 -8 -4 -15.5t-11.5 -12t-16.5 -4.5q-8 0 -15.5 4.5t-12 12t-4.5 15.5v11q0 25 6.5 45t20 36.5t31 29.5t42.5 27q23 12 40.5 31.5t26.5 44t9 51.5q0 60 -42 102t-102 42q-14 0 -28.5 -2.5t-27.5 -7
t-25 -11.5t-22 -16q-15 -14 -24.5 -31t-13.5 -37q-1 -6 -4 -10.5t-7 -8t-9.5 -5.5t-10.5 -2q-16 0 -25.5 11.5t-6.5 26.5q6 30 21 56.5t38 47.5q59 53 146 53q86 0 146.5 -61t60.5 -147q0 -58 -29.5 -107.5t-80.5 -76.5z" />
    <glyph glyph-name="uniE648" unicode="&#xe648;" 
d="M510 190q-8 0 -15.5 4.5t-12 12t-4.5 15.5v11q0 48 24.5 79.5t75.5 57.5q23 13 40.5 32.5t26.5 44t9 51.5q0 59 -42 101.5t-102 42.5q-29 0 -56 -9.5t-47 -27.5q-30 -28 -38 -68q-2 -12 -11 -19t-20 -7q-16 0 -25.5 11.5t-6.5 26.5q12 62 59 104q59 53 146 53
q86 0 147 -61q29 -30 44.5 -68t15.5 -79q0 -39 -13 -74t-38 -63.5t-59 -46.5q-36 -19 -51 -35t-15 -46v-11q0 -4 -1 -8t-3 -7.5t-5 -6.5t-6.5 -5t-7.5 -3.5t-9 -1.5zM510 62q-8 0 -15.5 4.5t-12 11.5t-4.5 16q0 7 3 13t7 10t10 6.5t12 2.5q5 0 9 -1t7.5 -3t6.5 -5t5 -6.5
t3 -7.5t1 -9q0 -13 -9 -22.5t-23 -9.5zM512 832q30 0 59.5 -4t58.5 -12t56 -19q81 -34 143 -96q20 -21 38 -43.5t32.5 -47.5t25.5 -52q35 -83 35 -174t-35 -174q-34 -81 -96 -143q-16 -15 -32.5 -29t-34.5 -26t-37 -22t-39 -19q-83 -35 -174 -35t-174 35q-81 34 -143 96
t-96 143q-35 83 -35 174t35 174q34 81 96 143t143 96q83 35 174 35zM512 896q-139 0 -257 -68.5t-186.5 -186.5t-68.5 -257t68.5 -257t186.5 -186.5t257 -68.5t257 68.5t186.5 186.5t68.5 257t-68.5 257t-186.5 186.5t-257 68.5z" />
    <glyph glyph-name="uniE649" unicode="&#xe649;" 
d="M480 66q-13 0 -22.5 9.5t-9.5 22.5v5q0 78 40.5 145t110.5 104q62 34 98.5 94t36.5 131q0 51 -19 97.5t-55 81.5q-37 37 -83.5 56t-97.5 19q-17 0 -33.5 -2.5t-32 -6.5t-31 -10.5t-29.5 -15t-27.5 -18.5t-25.5 -22q-63 -63 -72 -150q-2 -13 -11 -21t-21 -8
q-14 0 -24 10.5t-8 24.5q12 111 91 190q93 93 225 93q65 0 124 -25q57 -24 101 -68t68 -102q25 -59 25 -123q0 -89 -45.5 -164.5t-123.5 -116.5q-36 -19 -62.5 -49t-40.5 -67t-14 -77v-5q0 -13 -9.5 -22.5t-22.5 -9.5zM480 -128q-13 0 -22.5 9.5t-9.5 22.5t9.5 22.5
t22.5 9.5t22.5 -9.5t9.5 -22.5t-9.5 -22.5t-22.5 -9.5z" />
    <glyph glyph-name="uniE64A" unicode="&#xe64a;" 
d="M84 832q44 -2 85 -9q94 -14 162 -46l24 -12l25 9q68 24 141 24q88 0 168 -34q15 -7 30 -14.5t29 -16t27.5 -18.5t26 -21t24.5 -22q60 -60 92 -137v0q17 -40 25.5 -82t8.5 -86q0 -88 -34 -168q-32 -77 -92 -137t-137 -92q-80 -34 -168 -34q-43 0 -85.5 8.5t-81.5 25.5
q-78 33 -137.5 92.5t-92.5 136.5v0q-17 40 -25.5 82t-8.5 86q0 29 4 58.5t12 57.5q16 57 46 107l17 27l-12 30zM58 896h-12q-21 -1 -32 -18t-3 -36l87 -219q-72 -118 -72 -256q0 -101 39 -193q38 -88 106 -157q69 -68 158 -106q92 -39 192 -39q101 0 193 39q89 37 157 106
q69 68 106 157q20 46 29.5 94.5t9.5 98.5q0 101 -39 193q-37 88 -106 157q-68 68 -157 106q-30 13 -62 21.5t-64.5 13t-66.5 4.5q-84 0 -162 -28q-131 61 -301 62zM545 465q0 -17 -12 -29t-29 -12t-29 12t-12 29v74q0 17 12 29t29 12t29 -12t12 -29v-74zM783 465
q0 -17 -12 -29t-29 -12t-29 12t-12 29v74q0 17 12 29t29 12t29 -12t12 -29v-74z" />
    <glyph glyph-name="uniE64B" unicode="&#xe64b;" 
d="M977 560q-37 88 -106 157q-68 68 -157 106q-92 39 -193 39q-28 0 -55 -3t-54 -9t-53 -16q-144 69 -313 62q-21 -1 -32 -18t-3 -36l87 -219q-72 -118 -72 -256q0 -101 39 -193q38 -88 106 -157q69 -68 158 -106q92 -39 192 -39q101 0 193 39q89 37 157 106q69 68 106 157
q20 46 29.5 94.5t9.5 98.5q0 101 -39 193zM545 465q0 -17 -12 -29t-29 -12t-29 12t-12 29v74q0 17 12 29t29 12t29 -12t12 -29v-74zM783 465q0 -17 -12 -29t-29 -12t-29 12t-12 29v74q0 17 12 29t29 12t29 -12t12 -29v-74z" />
    <glyph glyph-name="uniE64C" unicode="&#xe64c;" 
d="M992 -64h-896q-13 0 -22.5 9.5t-9.5 22.5v896q0 13 -9.5 22.5t-22.5 9.5t-22.5 -9.5t-9.5 -22.5v-928q0 -26 19 -45t45 -19h928q13 0 22.5 9.5t9.5 22.5t-9.5 22.5t-22.5 9.5zM898 384l-239 239q-4 4 -8.5 6t-9.5 3t-9.5 0t-9.5 -3t-8 -6l-139 -139l-212 212q-7 7 -17 8
h-22q-13 0 -22.5 -9.5t-9.5 -22.5l2 -544q0 -27 18.5 -45.5t45.5 -18.5h576q26 0 45 19t19 45v256v0z" />
    <glyph glyph-name="uniE64D" unicode="&#xe64d;" horiz-adv-x="1025" 
d="M359 -128h-270q-37 0 -63 26t-26 63v270q0 37 26 63t63 26h270q37 0 63 -26t26 -63v-270q0 -37 -26 -63t-63 -26zM359 448h-270q-37 0 -63 26t-26 63v270q0 37 26 63t63 26h270q37 0 63 -26t26 -63v-270q0 -37 -26 -63t-63 -26zM935 -128h-270q-37 0 -63 26t-26 63v270
q0 37 26 63t63 26h270q37 0 63 -26t26 -63v-270q0 -37 -26 -63t-63 -26zM935 448h-270q-37 0 -63 26t-26 63v270q0 37 26 63t63 26h270q37 0 63 -26t26 -63v-270q0 -37 -26 -63t-63 -26z" />
    <glyph glyph-name="uniE64E" unicode="&#xe64e;" 
d="M902 547q-21 31 -49 52.5t-55.5 31t-46.5 13.5t-36 4q-35 4 -75 -7.5t-73 -25t-48 -13.5q-17 0 -75 22.5t-94 21.5q-19 0 -37 -3.5t-35 -9t-33.5 -14t-31.5 -19t-28.5 -23.5t-25 -28t-21.5 -31q-32 -57 -40 -129t5.5 -141.5t39.5 -133t60 -112.5q20 -30 34.5 -48t36 -40
t44.5 -32.5t46 -9.5q30 1 78.5 21.5t89.5 20.5q40 0 88 -20.5t81 -20.5q20 1 39.5 8.5t33.5 18t30.5 29.5t27 33t26.5 37q47 69 70 145l1 1q-5 2 -10.5 4.5t-19.5 11t-26.5 19t-28 28t-26.5 37.5t-18.5 48t-8.5 59q0 36 11.5 69.5t25 53.5t34 39t26.5 23.5t14 9.5zM716 896
q-39 -2 -81 -23.5t-70 -54.5q-27 -30 -41.5 -73t-9.5 -85q17 -1 34 2t32.5 9.5t30.5 15.5t28 20.5t24 24.5q18 23 31 48.5t19 56t3 59.5z" />
    <glyph glyph-name="uniE64F" unicode="&#xe64f;" 
d="M256 165q0 -30 21.5 -51.5t51.5 -21.5h37v-165q0 -23 16 -39t38.5 -16t39 16t16.5 39v165h74v-165q0 -23 16 -39t39 -16q15 0 27.5 7.5t20 20t7.5 27.5v165h35q31 0 52 21.5t21 51.5v366h-512v-366zM146 564q-10 0 -19.5 -2.5t-17.5 -7.5t-14.5 -11.5t-11.5 -14.5
t-7.5 -17.5t-2.5 -19.5v-253q0 -30 21.5 -51.5t51.5 -21.5t51.5 21.5t21.5 51.5v253q0 8 -2 16.5t-5.5 15.5t-8.5 13.5t-11.5 11.5t-13.5 8.5t-15 5.5t-17 2zM652 814l38 64q2 3 2 6t-1.5 6t-4.5 4q-1 1 -3 1.5t-3.5 0.5t-3.5 -1t-3 -2t-2 -3l-41 -66q-50 18 -117 18
q-68 0 -118 -19l-41 67q-6 10 -15.5 4t-3.5 -16l39 -64q-118 -58 -118 -226v-15h512v15q0 30 -3.5 55.5t-14 60t-36 63.5t-62.5 47zM394 678q-12 0 -20 8.5t-8 20.5t8 20t20 8t20.5 -8t8.5 -20t-8.5 -20.5t-20.5 -8.5zM631 678q-12 0 -20.5 8.5t-8.5 20.5t8.5 20t20.5 8
t20.5 -8t8.5 -20t-8.5 -20.5t-20.5 -8.5zM878 564q-30 0 -51.5 -21.5t-21.5 -51.5v-253q0 -20 9.5 -37t26.5 -26.5t37 -9.5q30 0 51.5 21.5t21.5 51.5v253q0 30 -21.5 51.5t-51.5 21.5z" />
    <glyph glyph-name="uniE650" unicode="&#xe650;" 
d="M192 672q0 13 9.5 22.5t22.5 9.5h768q13 0 22.5 -9.5t9.5 -22.5q0 -14 -9.5 -23t-22.5 -9h-768q-9 0 -16 4t-11.5 11.5t-4.5 16.5zM0 672q0 14 9.5 23t22.5 9t22.5 -9t9.5 -23q0 -13 -9.5 -22.5t-22.5 -9.5t-22.5 9.5t-9.5 22.5zM192 352q0 9 4.5 16.5t11.5 11.5t16 4
h768q13 0 22.5 -9t9.5 -23q0 -13 -9.5 -22.5t-22.5 -9.5h-768q-13 0 -22.5 9.5t-9.5 22.5zM0 354q0 8 4.5 15.5t11.5 12t16 4.5q13 0 22.5 -9.5t9.5 -22.5q0 -9 -4.5 -16.5t-11.5 -11.5t-16 -4q-13 0 -22.5 9t-9.5 23zM192 31q0 13 9.5 22.5t22.5 9.5h768q13 0 22.5 -9.5
t9.5 -22.5t-9.5 -22.5t-22.5 -9.5h-768q-13 0 -22.5 9.5t-9.5 22.5zM0 32q0 13 9.5 22.5t22.5 9.5t22.5 -9.5t9.5 -22.5t-9.5 -22.5t-22.5 -9.5t-22.5 9.5t-9.5 22.5z" />
    <glyph glyph-name="uniE651" unicode="&#xe651;" 
d="M992 -64h-896q-13 0 -22.5 9.5t-9.5 22.5v896q0 13 -9.5 22.5t-22.5 9.5t-22.5 -9.5t-9.5 -22.5v-928q0 -26 19 -45t45 -19h928q13 0 22.5 9.5t9.5 22.5t-9.5 22.5t-22.5 9.5zM225 64q-13 0 -22.5 9t-9.5 23v321q0 14 9.5 23t22.5 9q9 0 16 -4t11.5 -11.5t4.5 -16.5v-321
q0 -14 -9.5 -23t-22.5 -9zM418 64q-9 0 -16.5 4t-11.5 11.5t-4 16.5v449q0 13 9 22.5t23 9.5q13 0 22.5 -9.5t9.5 -22.5v-449q0 -9 -4.5 -16.5t-12 -11.5t-15.5 -4zM610 64q-9 0 -16.5 4t-11.5 11.5t-4 16.5v128q0 14 9 23t23 9q13 0 22.5 -9t9.5 -23v-128q0 -14 -9.5 -23
t-22.5 -9zM802 64q-9 0 -16.5 4t-11.5 11.5t-4 16.5v639q0 14 9 23t23 9q13 0 22.5 -9t9.5 -23v-639q0 -14 -9.5 -23t-22.5 -9z" />
    <glyph glyph-name="uniE652" unicode="&#xe652;" 
d="M960 705h-199l-111 118q-10 9 -25 9h-227q-15 0 -24 -9l-112 -118h-198q-26 0 -45 -19t-19 -45v-640q0 -26 19 -45t45 -19h896q26 0 45 19t19 45v640q0 26 -19 45t-45 19zM411 766h202l58 -61h-318zM949 12h-874v618h757v0h117v-618zM511 448q53 0 90.5 -37.5t37.5 -90.5
t-37.5 -90.5t-90.5 -37.5t-90.5 37.5t-37.5 90.5t37.5 90.5t90.5 37.5zM511 512q-79 0 -135.5 -56t-56.5 -135.5t56.5 -136t136 -56.5t135.5 56.5t56 136t-56 135.5t-136 56z" />
    <glyph glyph-name="uniE653" unicode="&#xe653;" 
d="M511 448q-53 0 -90.5 -37.5t-37.5 -90.5t37.5 -90.5t90.5 -37.5t90.5 37.5t37.5 90.5t-37.5 90.5t-90.5 37.5zM960 705h-199l-111 118q-10 9 -25 9h-227q-15 0 -24 -9l-112 -118h-198q-26 0 -45 -19t-19 -45v-640q0 -26 19 -45t45 -19h896q26 0 45 19t19 45v640
q0 26 -19 45t-45 19zM411 766h202l58 -61h-318zM511 128q-79 0 -135.5 56.5t-56.5 136t56.5 135.5t136 56t135.5 -56t56 -136q0 -39 -15 -74.5t-41 -61t-61.5 -41t-74.5 -15.5z" />
    <glyph glyph-name="uniE654" unicode="&#xe654;" 
d="M960 706h-192v94q0 13 -9.5 22.5t-22.5 9.5t-22.5 -9.5t-9.5 -22.5v-94h-192v94q0 6 -2.5 12t-7 10.5t-10 7t-12.5 2.5q-13 0 -22.5 -9.5t-9.5 -22.5v-94h-192v94q0 9 -4.5 16t-11.5 11.5t-16 4.5t-16.5 -4.5t-11.5 -11.5t-4 -16v-94h-128q-26 0 -45 -19t-19 -45v-640
q0 -27 19 -45.5t45 -18.5h896q26 0 45 18.5t19 45.5v640q0 13 -5 25t-13.5 20.5t-20.5 13.5t-25 5zM192 631v-23q0 -13 9.5 -22.5t22.5 -9.5t22.5 9.5t9.5 22.5v23h192v-23q0 -13 9.5 -22.5t22.5 -9.5t22.5 9.5t9.5 22.5v23h192v-23q0 -13 9.5 -22.5t22.5 -9.5t22.5 9.5
t9.5 22.5v23h181v-119h-867q-4 0 -7 -1v120h117zM75 13v436l7 -1h867v-435h-874zM672 382h-320q-9 0 -16 -4.5t-11.5 -11.5t-4.5 -16t4.5 -16.5t11.5 -11.5t16 -4h320q13 0 22.5 9.5t9.5 22.5t-9.5 22.5t-22.5 9.5zM672 190h-320q-9 0 -16 -4.5t-11.5 -11.5t-4.5 -16
q0 -13 9.5 -22.5t22.5 -9.5h320q9 0 16 4t11.5 11.5t4.5 16.5q0 13 -9.5 22.5t-22.5 9.5z" />
    <glyph glyph-name="uniE655" unicode="&#xe655;" 
d="M704 542q0 -13 -9.5 -22.5t-22.5 -9.5h-320q-5 0 -10 1.5t-9 4.5t-7 7t-4.5 9t-1.5 10t1.5 10t4.5 9t7 7t9 4.5t10 1.5h320q13 0 22.5 -9.5t9.5 -22.5zM704 350q0 -13 -9.5 -22.5t-22.5 -9.5h-320q-5 0 -10 1.5t-9 4.5t-7 7t-4.5 9t-1.5 10q0 13 9.5 22.5t22.5 9.5h320
q7 0 12.5 -2.5t10 -7t7 -10.5t2.5 -12zM704 158q0 -9 -4.5 -16t-11.5 -11.5t-16 -4.5h-320q-5 0 -10 1.5t-9 4.5t-7 7t-4.5 9t-1.5 10q0 13 9.5 22.5t22.5 9.5h320q24 0 31 -23q1 -5 1 -9zM832 832h-128v32q0 9 -4 16t-11.5 11.5t-16.5 4.5q-13 0 -22.5 -9.5t-9.5 -22.5v-32
h-95v32q0 9 -4.5 16t-12 11.5t-15.5 4.5q-14 0 -23 -9.5t-9 -22.5v-32h-96v32q0 13 -9.5 22.5t-22.5 9.5t-22.5 -9.5t-9.5 -22.5v-32h-129q-26 0 -45 -19t-19 -45v-832q0 -26 19 -45t45 -19h640q26 0 45 19t19 45v832q0 7 -1.5 14.5t-5 13.5t-7.5 11.5t-10 10t-12 8t-13.5 5
t-14.5 1.5zM823 -56h-622v815h120v-23q0 -13 9.5 -22.5t22.5 -9.5t22.5 9.5t9.5 22.5v23h96v-23q0 -13 9 -22.5t22.5 -9.5t23 9.5t9.5 22.5v23h95v-23q0 -9 4.5 -16t12 -11.5t15.5 -4.5q6 0 10.5 1.5t8.5 4.5t7 7t4.5 9t1.5 10v23h119v-815z" />
    <glyph glyph-name="uniE656" unicode="&#xe656;" 
d="M222.5 578q-8.5 0 -16 -4.5t-12 -12t-4.5 -16.5t4.5 -16.5t12 -11.5t16 -4t16 4t12 11.5t4.5 16.5t-4.5 16.5t-12 12t-16 4.5zM1004 312l-449 453q-2 3 -5 5t-6 3.5t-6.5 3t-7 2t-7.5 0.5h-180h-93h-180q-29 0 -49.5 -20.5t-20.5 -48.5v-280q0 -4 1 -8.5t2.5 -8.5t4 -8
t5.5 -7l448 -443q21 -20 50 -20t49 20l41 41l41 -41q20 -20 49 -20t50 20l263 260q7 8 12.5 18t7 20.5t0 20.5t-6.5 20t-13 18zM222.5 449q-26.5 0 -48.5 13t-35 35t-13 48q0 40 28.5 68.5t68.5 28.5t68 -28.5t28 -68.5q0 -26 -13 -48t-35 -35t-48.5 -13zM958 260l-262 -259
q-2 -2 -4.5 -2t-4.5 2l-40 39l176 175q21 20 21 48.5t-20 48.5l-399 403h90l443 -448l2 -3q0 -2 -2 -4z" />
    <glyph glyph-name="uniE657" unicode="&#xe657;" 
d="M222.5 578q8.5 0 16 -4.5t12 -12t4.5 -16.5t-4.5 -16.5t-12 -11.5t-16 -4t-16 4t-12 11.5t-4.5 16.5t4.5 16.5t12 12t16 4.5zM223 642q-27 0 -49 -13t-35 -35.5t-13 -48.5q0 -40 28.5 -68t68.5 -28t68 28t28 68t-28 68.5t-68 28.5zM1004 312l-449 453q-2 3 -5 5t-6 3.5
t-6.5 3t-7 2t-7.5 0.5h-180h-93h-180q-29 0 -49.5 -20.5t-20.5 -48.5v-280q0 -4 1 -8.5t2.5 -8.5t4 -8t5.5 -7l448 -443q21 -20 50 -20t49 20l41 41l41 -41q20 -20 49 -20t50 20l263 260q7 8 12.5 18t7 20.5t0 20.5t-6.5 20t-13 18zM556 40l-40 -39q-2 -2 -5 -2t-5 2
l-442 437v272q0 5 6 5h110h70h85l443 -448l2 -3q0 -2 -2 -3l-177 -175zM958 260l-262 -259q-2 -2 -4.5 -2t-4.5 2l-40 39l176 175q21 20 21 48.5t-20 48.5l-399 403h90l443 -448l2 -3q0 -2 -2 -4z" />
    <glyph glyph-name="uniE658" unicode="&#xe658;" 
d="M1000 330l-545 550q-16 16 -39 16h-331q-35 0 -60 -24.5t-25 -59.5v-340q0 -22 16 -38l544 -537q12 -12 28 -18.5t32 -6.5q6 0 11 0.5t10.5 2t10.5 3.5t10 5t9.5 6.5t8.5 7.5l319 315q25 24 25 58.5t-24 59.5zM248 520q-53 0 -90.5 37.5t-37.5 90.5t37.5 90.5t90.5 37.5
t90.5 -37.5t37.5 -90.5q0 -35 -17 -64.5t-46.5 -46.5t-64.5 -17zM248.5 712q-26.5 0 -45.5 -19t-19 -45q0 -18 8.5 -32.5t23.5 -23t32.5 -8.5t32 8.5t23 23t8.5 32.5q0 26 -18.5 45t-45 19z" />
    <glyph glyph-name="uniE659" unicode="&#xe659;" horiz-adv-x="1025" 
d="M412 832l542 -547q6 -6 6 -14q0 -3 -1.5 -7t-4.5 -7l-319 -315q-6 -6 -15 -6q-3 0 -7 1.5t-8 4.5l-541 535v335q0 8 6 14t15 6h327zM416 896h-331q-35 0 -60 -24.5t-25 -59.5v-340q0 -22 16 -38l544 -537q12 -12 28 -18.5t32 -6.5q6 0 11 0.5t10.5 2t10.5 3.5t10 5
t9.5 6.5t8.5 7.5l319 315q16 16 22 37.5t0.5 43t-21.5 37.5l-545 550q-16 16 -39 16zM248 712q18 0 32.5 -8.5t23 -23.5t8.5 -32q0 -27 -18.5 -45.5t-45 -18.5t-45.5 18.5t-19 45.5q0 13 5 24.5t14 20.5t20.5 14t24.5 5zM248 776q-53 0 -90.5 -37.5t-37.5 -90.5t37.5 -90.5
t90.5 -37.5t90.5 37.5t37.5 90.5q0 34 -17 63.5t-46.5 47t-64.5 17.5z" />
    <glyph glyph-name="uniE65A" unicode="&#xe65a;" 
d="M980 413q-8 11 -16.5 21.5t-18 20t-20 18t-21.5 16.5q-1 25 -6.5 49.5t-15.5 46.5q-11 27 -28 51t-39 46q-14 14 -30 26t-33 21.5t-35 16.5q-54 22 -116 22q-15 0 -30 -1.5t-29.5 -4.5t-29 -7t-28 -9.5t-26.5 -12.5t-26 -16q-45 -30 -76 -73q-7 2 -13.5 3.5t-13 2.5
t-13 1.5t-13.5 0.5q-37 0 -70 -13.5t-59 -39.5q-27 -26 -41 -58q-7 -16 -10 -33.5t-3 -36.5q0 -13 1 -26q-38 -22 -67 -57q-54 -65 -54 -149q0 -50 18 -93q18 -42 53.5 -76.5t79 -52t92.5 -17.5h508q55 0 104 19.5t88.5 58.5t59.5 86q21 49 21 104q0 79 -44 145z" />
    <glyph glyph-name="uniE65B" unicode="&#xe65b;" 
d="M980 413q-8 11 -16.5 21.5t-18 20t-20 18t-21.5 16.5q-1 25 -6.5 49.5t-15.5 46.5q-11 27 -28 51t-39 46q-14 14 -30 26t-33 21.5t-35 16.5q-54 22 -116 22q-15 0 -30 -1.5t-29.5 -4.5t-29 -7t-28 -9.5t-26.5 -12.5t-26 -16q-45 -30 -76 -73q-7 2 -13.5 3.5t-13 2.5
t-13 1.5t-13.5 0.5q-37 0 -70 -13.5t-59 -39.5q-27 -26 -41 -58q-7 -16 -10 -33.5t-3 -36.5q0 -13 1 -26q-38 -22 -67 -57q-54 -65 -54 -149q0 -50 18 -93q18 -42 53.5 -76.5t79 -52t92.5 -17.5h508q55 0 104 19.5t88.5 58.5t59.5 86q21 49 21 104q0 79 -44 145zM781 287
l-149 -150q-5 -4 -11 -6.5t-12 -2.5t-12 2.5t-11 6.5l-149 150q-9 9 -9 22.5t9 22.5t22.5 9t22.5 -9l95 -95v306q0 14 9.5 23t22.5 9t22.5 -9t9.5 -23v-306l95 95q6 6 14 8.5t16.5 0t14.5 -8.5q18 -18 5 -39q-3 -4 -5 -6z" />
    <glyph glyph-name="uniE65C" unicode="&#xe65c;" 
d="M258 449l-146 254q71 90 176 141.5t224 51.5q138 0 255 -68t185 -183h-417q-11 1 -23 1q-60 0 -113 -25.5t-89.5 -70t-51.5 -101.5zM695 571h294q35 -90 35 -187q0 -83 -25.5 -160.5t-72.5 -140.5t-109 -110t-139.5 -73.5t-159.5 -27.5l209 363q47 67 47 149
q0 54 -21 102.5t-58 84.5v0zM326 384q0 77 54.5 131.5t131.5 54.5t131.5 -54.5t54.5 -131.5t-54.5 -131.5t-131.5 -54.5t-131.5 54.5t-54.5 131.5zM582 132l-146 -254q-123 18 -222.5 89t-156.5 181t-57 236q0 135 66 251l209 -362q32 -68 96 -109.5t141 -41.5q35 0 70 10z
" />
    <glyph glyph-name="uniE65D" unicode="&#xe65d;" 
d="M236 584q-9 10 -22.5 10t-22.5 -10l-182 -181q-9 -9 -9 -22.5t9 -22.5l182 -182q6 -6 14.5 -8.5t16.5 0t14 8.5t8.5 14t0 16.5t-8.5 14.5l-159 159l159 159q10 10 10 23t-10 22zM788 584q9 10 22.5 10t22.5 -10l182 -181q6 -6 8 -14.5t0 -16.5t-8 -14l-182 -182
q-9 -10 -22.5 -10t-22.5 10q-10 9 -10 22.5t10 22.5l159 159l-159 159q-10 10 -10 23t10 22zM691 764q12 -6 16 -19t-2 -24l-371 -704q-7 -12 -19.5 -16t-24.5 2q-11 7 -15 19.5t2 24.5l371 703q4 8 11.5 12.5t15.5 5t16 -3.5z" />
    <glyph glyph-name="uniE65E" unicode="&#xe65e;" 
d="M883 602q-8 33 -21 64q-5 11 -10.5 22t-11.5 21t-13 20t-14.5 19.5t-15.5 18.5t-17 18q-53 51 -122 80q-23 9 -47.5 15.5t-50 10t-50.5 3.5q-78 0 -149 -29q-68 -28 -121 -80t-82 -119q-5 -10 -9 -21t-7 -22l-6 -22q-59 -19 -97 -70t-38 -116q0 -80 57 -137
q20 -20 44.5 -33.5t51.5 -19.5q15 -3 27 6.5t12 25.5l-2 263q0 128 93 219q45 44 103.5 67.5t122.5 23.5t122 -23.5t103 -67.5t69 -100.5t24 -117.5v-276q0 -128 -93 -218q-45 -44 -103 -68q6 20 6 42q-1 50 -37 85.5t-86 37.5q-53 1 -91 -36t-38 -90q0 -52 36 -88.5
t88 -37.5h1h1h2h1q75 1 143 29q34 14 64.5 34t57.5 46q17 17 32 36t27.5 40t22.5 43q13 31 20.5 64t9.5 67q10 4 20 8.5t19.5 10.5t18 13t16.5 15q57 57 57 137q0 66 -39.5 118t-100.5 69zM103 323q-18 19 -28 42.5t-10 49.5q0 35 17 65t45 47v-3v-4v-216q-13 8 -24 19z
M514 -64h-3q-25 0 -43 18t-18 43.5t18 44t44 18.5t44 -18.5t18 -43.5t-17.5 -43t-42.5 -19zM921 323q-3 -3 -6.5 -6t-7.5 -6t-7.5 -5.5t-7.5 -4.5v219v10q30 -17 48.5 -47.5t18.5 -67.5q0 -54 -38 -92z" />
    <glyph glyph-name="uniE65F" unicode="&#xe65f;" 
d="M960 768h-896q-26 0 -45 -19t-19 -45v-640q0 -26 19 -45t45 -19h896q26 0 45 19t19 45v640q0 26 -19 45t-45 19zM64 704h896v-129h-896v129zM960 64h-896v447h896v-447zM192 416v-128q0 -9 -4.5 -16.5t-11.5 -11.5t-16 -4q-13 0 -22.5 9.5t-9.5 22.5v128q0 9 4.5 16
t11.5 11.5t16 4.5q13 0 22.5 -9.5t9.5 -22.5zM321 416v-128q0 -9 -4.5 -16.5t-11.5 -11.5t-16 -4t-16 4t-11.5 11.5t-4.5 16.5v128q0 9 4.5 16t11.5 11.5t16 4.5t16 -4.5t11.5 -11.5t4.5 -16z" />
    <glyph glyph-name="uniE660" unicode="&#xe660;" 
d="M750 879q-8 8 -18.5 12.5t-21.5 4.5h-378q-28 0 -49 -18.5t-25 -45.5h-79q-48 0 -81.5 -33.5t-33.5 -81.5v-730q0 -48 33.5 -81.5t81.5 -33.5h604q48 0 81.5 33.5t33.5 81.5v80q27 5 44.5 26t17.5 49v504q0 6 -1 11.5t-3.5 10.5t-5.5 9.5t-7 8.5zM867 672h-159v159z
M834 -13q0 -14 -6.5 -25.5t-18.5 -18.5t-25 -7h-605q-21 0 -36 15t-15 36v730q0 21 15 36t36 15h78v-627q0 -15 6 -29t16 -24t24 -16t29 -6h502v-79zM896 142q0 -12 -12 -12h-552q-4 0 -7.5 3.5t-3.5 8.5v678q0 5 3.5 8.5t7.5 3.5h308v-192q0 -13 9.5 -22.5t22.5 -9.5h36
h188v-466zM736 449h-255q-13 0 -22.5 9.5t-9.5 22.5t9.5 22.5t22.5 9.5h255q13 0 22.5 -9.5t9.5 -22.5t-9.5 -22.5t-22.5 -9.5zM736 320h-255q-13 0 -22.5 9.5t-9.5 22.5t9.5 22.5t22.5 9.5h255q13 0 22.5 -9.5t9.5 -22.5q0 -9 -4.5 -16t-12 -11.5t-15.5 -4.5zM608 191h-128
q-8 0 -15.5 4.5t-12 11.5t-4.5 16q0 13 9.5 22.5t22.5 9.5h128q14 0 23 -9.5t9 -22.5q0 -6 -2.5 -12t-6.5 -10.5t-10 -7t-13 -2.5z" />
    <glyph glyph-name="uniE661" unicode="&#xe661;" 
d="M928 705h-159v118q0 30 -21.5 51.5t-51.5 21.5h-368q-30 0 -51.5 -21.5t-21.5 -51.5v-118h-159q-4 0 -8.5 -1.5t-8 -3.5t-6.5 -5t-5 -6.5t-3.5 -7.5t-1.5 -9q0 -9 4.5 -16.5t12 -11.5t16.5 -4h33v-695q0 -30 21.5 -51.5t51.5 -21.5h619q30 0 51.5 21.5t21.5 51.5v695h33
q9 0 16.5 4t12 11.5t4.5 16.5t-4.5 16.5t-12 12t-15.5 4.5zM319 705v118q0 4 3 6.5t6 2.5h368q4 0 6.5 -2.5t2.5 -6.5v-118v-1h-386v1zM830 -55q0 -9 -9 -9h-619q-9 0 -9 9v695h62h575v-695zM320 480v-384q0 -14 -9.5 -23t-22.5 -9q-9 0 -16 4t-11.5 11.5t-4.5 16.5v384
q0 8 4.5 15.5t11.5 12t16 4.5t16 -4.5t11.5 -12t4.5 -15.5zM544 480v-384q0 -14 -9.5 -23t-22.5 -9q-9 0 -16 4t-11.5 11.5t-4.5 16.5v384q0 8 4.5 15.5t11.5 12t16 4.5q13 0 22.5 -9.5t9.5 -22.5zM769 480v-384q0 -14 -9.5 -23t-22.5 -9t-22.5 9t-9.5 23v384q0 13 9.5 22.5
t22.5 9.5t22.5 -9.5t9.5 -22.5z" />
    <glyph glyph-name="uniE662" unicode="&#xe662;" 
d="M960 831h-896q-26 0 -45 -18.5t-19 -45.5v-576q0 -26 19 -45t45 -19h416v-127h-192q-8 0 -15.5 -4.5t-12 -11.5t-4.5 -16q0 -13 9.5 -22.5t22.5 -9.5h448q9 0 16.5 4.5t11.5 11.5t4 16q0 13 -9 22.5t-23 9.5h-192v127h416q7 0 14.5 2t13.5 5t12 7.5t10 10t7.5 12t5 13.5
t1.5 14v576q0 8 -1.5 15t-5 13.5t-7.5 12t-10 10t-12 7.5t-13.5 4.5t-14.5 1.5zM960 191h-896v576h896v-576z" />
    <glyph glyph-name="uniE663" unicode="&#xe663;" 
d="M338 255l181 -181q10 -10 23 -10t23 10l181 181q6 6 8 14t0 16.5t-8 14.5q-10 9 -23 9t-23 -9l-126 -126v690q0 13 -9.5 22.5t-22.5 9.5t-22.5 -9.5t-9.5 -22.5v-690l-126 126q-10 9 -23 9t-23 -9q-6 -6 -8 -14.5t0 -16.5t8 -14zM960 160v-192q0 -13 -9.5 -22.5
t-22.5 -9.5h-832q-13 0 -22.5 9.5t-9.5 22.5v192q0 13 -9.5 22.5t-22.5 9.5t-22.5 -9.5t-9.5 -22.5v-224q0 -26 19 -45t45 -19h896q26 0 45 19t19 45v224q0 13 -9.5 22.5t-22.5 9.5t-22.5 -9.5t-9.5 -22.5z" />
    <glyph glyph-name="uniE664" unicode="&#xe664;" 
d="M338 660q10 -9 23 -9t23 9l126 127v-691q0 -13 9.5 -22.5t22.5 -9.5t22.5 9.5t9.5 22.5v691l126 -127q10 -9 23 -9t23 9q3 4 5.5 8.5t3 9.5t0 10t-3 9.5t-5.5 8.5l-181 181q-5 4 -11 6.5t-12 2.5t-12 -2.5t-11 -6.5l-181 -181q-9 -10 -9 -23t9 -23zM960 160v-192
q0 -13 -9.5 -22.5t-22.5 -9.5h-832q-13 0 -22.5 9.5t-9.5 22.5v192q0 13 -9.5 22.5t-22.5 9.5t-22.5 -9.5t-9.5 -22.5v-224q0 -26 19 -45t45 -19h896q26 0 45 19t19 45v224q0 13 -9.5 22.5t-22.5 9.5t-22.5 -9.5t-9.5 -22.5z" />
    <glyph glyph-name="uniE665" unicode="&#xe665;" 
d="M512 639q-66 0 -113 -47t-47 -113t47 -113t113 -47q43 0 80 21.5t58.5 58.5t21.5 80q0 66 -47 113t-113 47zM512 896q-87 0 -168 -30.5t-141.5 -82.5t-96.5 -124t-36 -150q0 -244 252 -490q81 -79 169 -140q21 -15 42 0q25 17 51.5 37.5t70 58.5t81.5 78t79.5 94.5
t71 109.5t48.5 121t19 131q0 78 -36 150t-96.5 124t-141.5 82.5t-168 30.5zM670 321q-15 -16 -33.5 -28.5t-38.5 -20.5t-42 -12.5t-44 -4.5q-93 0 -158.5 65.5t-65.5 158.5t66 158q31 32 72 49t86 17q93 0 158 -66q32 -31 49 -72t17 -86q0 -30 -7.5 -58t-22.5 -53.5
t-36 -46.5z" />
    <glyph glyph-name="uniE666" unicode="&#xe666;" 
d="M512 832q38 0 74.5 -6.5t71.5 -19.5q23 -9 44 -19.5t40.5 -24t36.5 -28.5q53 -45 82 -103q14 -29 21.5 -59.5t7.5 -62.5q0 -96 -47 -196q-41 -86 -115 -173q-92 -108 -216 -198q-124 90 -216 198q-74 87 -115 173q-23 50 -35 99.5t-12 96.5q0 32 7.5 62.5t21.5 59.5
q29 58 82 103q53 46 121 72q71 26 146 26zM512 896q-58 0 -114.5 -14t-105 -39t-90 -60.5t-70.5 -78t-45.5 -92.5t-16.5 -103q0 -65 19 -131t48.5 -121t71 -109.5t79.5 -94.5t81.5 -78t70 -58.5t51.5 -37.5q9 -7 21 -7q6 0 11 1.5t10 5.5q25 17 51.5 37.5t70 58.5t81.5 78
t79.5 94.5t71 109.5t48.5 121t19 131q0 78 -36 150t-96.5 124t-141.5 82.5t-168 30.5zM512 255q-93 0 -158.5 65.5t-65.5 158.5q0 30 7.5 58.5t22.5 53.5t36 46q31 32 72 49t86 17q15 0 29.5 -2t28.5 -5.5t27.5 -9.5t26 -13t24.5 -16t22 -20q32 -31 49 -72t17 -86
q0 -93 -65.5 -158.5t-158.5 -65.5zM512 639q-66 0 -113 -47t-47 -113t47 -113t113 -47t113 47t47 113t-47 113t-113 47z" />
    <glyph glyph-name="uniE667" unicode="&#xe667;" 
d="M64 320q-26 0 -45 18.5t-19 45.5t19 45.5t45 18.5q27 0 46 -18.5t19 -45.5t-19 -45.5t-46 -18.5zM512 320q-27 0 -45.5 19t-18.5 46t18.5 46t45.5 19t45.5 -19t18.5 -46q0 -18 -8.5 -32.5t-23 -23.5t-32.5 -9zM960 320q-27 0 -46 18.5t-19 45.5q0 18 8.5 32.5t23.5 23
t33 8.5q26 0 45 -18.5t19 -45.5q0 -18 -8.5 -32.5t-23.5 -23t-32 -8.5z" />
    <glyph glyph-name="uniE668" unicode="&#xe668;" horiz-adv-x="1025" 
d="M992 -127h-960q-13 0 -22.5 9.5t-9.5 22.5t9.5 22.5t22.5 9.5h960q13 0 22.5 -9.5t9.5 -22.5t-9.5 -22.5t-22.5 -9.5zM1004 778l-98 98q-10 10 -22.5 15t-26.5 5q-29 0 -49 -20l-480 -481l-133 -281q-8 -18 2.5 -34t29.5 -16q7 0 15 3l281 133l481 480q20 21 20 49.5
t-20 48.5zM486 253l-198 -93l93 198l348 348l105 -105zM958 725l-79 -79l-105 105l79 79l4 2q2 0 4 -2l97 -97q2 -2 2 -4z" />
    <glyph glyph-name="uniE669" unicode="&#xe669;" 
d="M896 418v-482h-832v832h481q13 0 22.5 9.5t9.5 22.5t-9.5 22.5t-22.5 9.5h-481q-26 0 -45 -19t-19 -45v-832q0 -26 19 -45t45 -19h832q26 0 45 19t19 45v482q0 13 -9.5 22.5t-22.5 9.5t-22.5 -9.5t-9.5 -22.5zM1024 609v255q0 13 -9.5 22.5t-22.5 9.5h-257
q-13 0 -22.5 -9.5t-9.5 -22.5t9.5 -22.5t22.5 -9.5h180l-457 -457q-3 -3 -5 -7t-3 -8t-1 -8t1 -8t3 -8t5 -7q10 -9 23 -9t23 9l456 458v-178q0 -13 9.5 -22.5t22.5 -9.5t22.5 9.5t9.5 22.5z" />
    <glyph glyph-name="uniE66A" unicode="&#xe66a;" 
d="M672 512q13 0 22.5 -9t9.5 -23v-448q0 -14 -9.5 -23t-22.5 -9t-22.5 9t-9.5 23v448q0 14 9.5 23t22.5 9zM672 -64q13 0 22.5 -9.5t9.5 -22.5t-9.5 -22.5t-22.5 -9.5t-22.5 9.5t-9.5 22.5t9.5 22.5t22.5 9.5zM160 639h384q13 0 22.5 -9.5t9.5 -22.5t-9.5 -22.5t-22.5 -9.5
h-384q-13 0 -22.5 9.5t-9.5 22.5t9.5 22.5t22.5 9.5zM160 447h192q13 0 22.5 -9.5t9.5 -22.5t-9.5 -22.5t-22.5 -9.5h-192q-13 0 -22.5 9.5t-9.5 22.5t9.5 22.5t22.5 9.5zM160 255h192q13 0 22.5 -9.5t9.5 -22.5t-9.5 -22.5t-22.5 -9.5h-192q-13 0 -22.5 9.5t-9.5 22.5
t9.5 22.5t22.5 9.5zM1 831v-832q0 -26 18.5 -45t45.5 -19h480q13 0 22.5 9.5t9.5 22.5q0 14 -9.5 23t-22.5 9h-480v832h832v-832h-98q-13 0 -22.5 -9t-9.5 -23q0 -13 9.5 -22.5t22.5 -9.5h98q26 0 45 19t19 45v832q0 27 -19 45.5t-45 18.5h-832q-40 0 -57 -34q-7 -15 -7 -30
z" />
    <glyph glyph-name="uniE66B" unicode="&#xe66b;" 
d="M637 832l195 -218v-669q0 -3 -4 -6t-9 -3h-614q-5 0 -9 3t-4 6v878q0 3 4 6t9 3h432zM666 896h-461q-32 0 -54.5 -21.5t-22.5 -51.5v-878q0 -30 22.5 -51.5t54.5 -21.5h614q21 0 38.5 10t28 26.5t10.5 36.5v694zM640 640v256h-64v-256q0 -26 19 -45t45 -19h253v64h-253z
" />
    <glyph glyph-name="uniE66C" unicode="&#xe66c;" 
d="M637 832l195 -218v-669q0 -3 -4 -6t-9 -3h-614q-5 0 -9 3t-4 6v878q0 3 4 6t9 3h432zM666 896h-461q-32 0 -54.5 -21.5t-22.5 -51.5v-878q0 -30 22.5 -51.5t54.5 -21.5h614q21 0 38.5 10t28 26.5t10.5 36.5v694zM640 640v256h-64v-256q0 -26 19 -45t45 -19h253v64h-253z
M544 448h-256q-9 0 -16.5 4.5t-11.5 11.5t-4 16t4 16.5t11.5 11.5t16.5 4h256q13 0 22.5 -9.5t9.5 -22.5t-9.5 -22.5t-22.5 -9.5zM736 256h-448q-9 0 -16.5 4.5t-11.5 11.5t-4 16t4 16t11.5 11.5t16.5 4.5h448q14 0 23 -9.5t9 -22.5t-9 -22.5t-23 -9.5zM544 64h-256
q-9 0 -16.5 4.5t-11.5 11.5t-4 16q0 13 9.5 22.5t22.5 9.5h256q13 0 22.5 -9.5t9.5 -22.5t-9.5 -22.5t-22.5 -9.5z" />
    <glyph glyph-name="uniE66D" unicode="&#xe66d;" horiz-adv-x="1025" 
d="M512 695q134 0 233 -50v0q80 -40 135 -109v0q48 -60 78 -152q-30 -92 -78 -151v-1q-18 -23 -39.5 -42.5t-45.5 -36.5t-50 -30q-25 -13 -52 -22t-56.5 -15.5t-60.5 -9.5t-64 -3q-133 0 -234 50q-79 40 -135 109v0q-48 60 -77 152q29 92 77 152q56 69 136 109
q100 50 233 50zM512 759q-148 0 -262 -57q-92 -45 -156 -126q-28 -35 -51.5 -82.5t-33 -76t-9.5 -33.5t9.5 -33.5t33 -76t51.5 -81.5q64 -81 156 -127q114 -57 262 -57t262 57q92 46 157 127q27 34 50.5 81.5t33 76t9.5 33.5q0 1 -1 5.5t-3.5 12t-6 17t-8 21.5t-10 25
t-13 27.5t-15 28.5t-17 28t-19.5 27q-65 80 -157 126q-113 57 -262 57zM512 512q25 0 48.5 -9.5t41.5 -27.5q12 -12 20 -26.5t12.5 -30.5t4.5 -33q0 -53 -37 -90t-90 -37q-10 0 -20 1.5t-19.5 4.5t-18 7.5t-17 10.5t-15.5 13q-18 18 -27.5 41.5t-9.5 48.5q0 10 1.5 20
t4.5 19.5t7.5 18t10.5 17t13 15.5q37 37 90 37zM512 576q-79 0 -135 -56t-56 -135t56 -135t135 -56t135 56t56 135t-56 135t-135 56z" />
    <glyph glyph-name="uniE66E" unicode="&#xe66e;" horiz-adv-x="1025" 
d="M930 576q-64 80 -156 126q-113 57 -262 57t-262 -57q-23 -11 -44.5 -25t-41 -29.5t-37.5 -33.5t-34 -38q-27 -35 -50.5 -82.5t-33 -76t-9.5 -33.5t9.5 -33.5t33 -76t51.5 -81.5q64 -81 156 -127q114 -57 262 -57t262 57q92 46 157 127q27 34 50.5 81.5t33 76t9.5 33.5
t-9.5 33.5t-33 76t-51.5 82.5zM512 194q-79 0 -135 56t-56 135t56 135t135 56t135 -56t56 -135t-56 -135t-135 -56zM512 512q-10 0 -20 -1.5t-19.5 -4.5t-18 -7.5t-17 -10.5t-15.5 -13q-18 -18 -27.5 -41.5t-9.5 -48.5q0 -10 1.5 -20t4.5 -19.5t7.5 -18t10.5 -17t13 -15.5
q37 -37 90 -37q25 0 48.5 9.5t41.5 27.5t27.5 41.5t9.5 48.5q0 53 -37 90t-90 37z" />
    <glyph glyph-name="uniE66F" unicode="&#xe66f;" horiz-adv-x="1025" 
d="M924 832l-353 -443l-14 -17v-23v-224q0 -18 -10.5 -42.5t-22.5 -36.5l-57 -56l-1 360v22l-13 18l-353 442h824zM984 896h-944q-30 0 -38 -16.5t11 -40.5l389 -489v-440q0 -18 6 -28t17 -10q13 0 29 16l115 113q21 21 36.5 57t15.5 67v224l390 490q19 24 11 40.5t-38 16.5
z" />
    <glyph glyph-name="uniE670" unicode="&#xe670;" 
d="M405 768q5 0 11 -5t7 -10v-1l18 -76l1 -1q3 -13 10 -23t16 -16q20 -17 45 -17h437q10 0 10 -11v-597v0q0 -5 -3 -8t-6 -3h-878q-4 0 -6.5 3t-2.5 8v746q0 11 9 11h332zM405 832h-332q-30 0 -51.5 -22t-21.5 -53v-746q0 -31 21.5 -53t51.5 -22h878q30 0 51.5 22t21.5 53
v597q0 31 -21.5 53t-51.5 22h-437q-2 0 -4 1t-4 3t-2 3l-18 77q-3 13 -11 25t-19 21q-23 19 -51 19z" />
    <glyph glyph-name="uniE671" unicode="&#xe671;" horiz-adv-x="1025" 
d="M978 446h1v114q0 29 -20.5 49.5t-48.5 20.5h-425q-2 0 -5 2.5t-4 4.5l-17 71q-6 25 -28 43q-11 8 -23.5 12.5t-24.5 4.5h-314q-28 0 -48.5 -20.5t-20.5 -48.5v-692q0 -27 18 -46q20 -23 51 -23q619 -1 804 0q23 0 40.5 15t22.5 38l42 195l45 205q5 21 -9 38t-36 17z
M64 174v525q0 5 5 5h314q4 0 8 -4q5 -3 6 -7v0l17 -71v-1q6 -23 26 -39q21 -16 45 -16h425q5 0 5 -5v-115h-1h-754q-11 0 -20.5 -4.5t-16 -13t-8.5 -18.5zM914 192l-41 -190h-781l82 380h740h42z" />
    <glyph glyph-name="uniE672" unicode="&#xe672;" 
d="M512 896q-139 0 -257 -68.5t-186.5 -186.5t-68.5 -257t68.5 -257t186.5 -186.5t257 -68.5t257 68.5t186.5 186.5t68.5 257t-68.5 257t-186.5 186.5t-257 68.5zM256 482q0 -13 -9.5 -22.5t-22.5 -9.5t-22.5 9.5t-9.5 22.5v64q0 13 9.5 22.5t22.5 9.5t22.5 -9.5t9.5 -22.5
v-64zM736 130q-12 0 -21 8t-11 19q-9 62 -55 107q-57 56 -137 56t-137 -56q-23 -22 -37 -49.5t-18 -57.5q-2 -12 -11 -19.5t-21 -7.5q-14 0 -23.5 11t-7.5 25q6 41 24.5 77.5t48.5 66.5q76 74 182.5 74t181.5 -74q61 -60 73 -143q3 -15 -7 -26t-24 -11zM831 482
q0 -13 -9.5 -22.5t-22.5 -9.5t-22.5 9.5t-9.5 22.5v64q0 13 9.5 22.5t22.5 9.5t22.5 -9.5t9.5 -22.5v-64z" />
    <glyph glyph-name="uniE673" unicode="&#xe673;" 
d="M512 832q91 0 174 -35q40 -17 76 -41t67 -55q9 -9 17 -19l16 -18q8 -10 15 -20t13.5 -20.5t12.5 -21t11.5 -21.5t10.5 -23q35 -83 35 -174t-35 -174q-34 -81 -96 -143q-9 -9 -19 -17l-18 -16q-10 -8 -20 -15t-20.5 -13.5t-21 -12.5t-21.5 -11.5t-23 -10.5
q-83 -35 -174 -35t-174 35q-81 34 -143 96t-96 143q-35 83 -35 174t35 174q17 40 41 76t55 67q62 62 143 96q83 35 174 35zM512 896q-139 0 -257 -68.5t-186.5 -186.5t-68.5 -257t68.5 -257t186.5 -186.5t257 -68.5t257 68.5t186.5 186.5t68.5 257t-68.5 257t-186.5 186.5
t-257 68.5zM224 450q-13 0 -22.5 9.5t-9.5 22.5v64q0 13 9.5 22.5t22.5 9.5t22.5 -9.5t9.5 -22.5v-64q0 -13 -9.5 -22.5t-22.5 -9.5zM799 450q-13 0 -22.5 9.5t-9.5 22.5v64q0 13 9.5 22.5t22.5 9.5t22.5 -9.5t9.5 -22.5v-64q0 -13 -9.5 -22.5t-22.5 -9.5zM192 319zM832 319
zM512 384q-106 0 -182 -74q-61 -60 -73 -143q-2 -10 2 -18.5t12 -13.5t17 -5q8 0 15 3.5t11.5 10t5.5 13.5q9 62 55 107q57 56 137 56t137 -56q46 -45 55 -107q2 -12 11 -19.5t21 -7.5q14 0 24 11t7 26q-12 82 -73 143q-36 36 -83.5 55t-98.5 19z" />
    <glyph glyph-name="uniE674" unicode="&#xe674;" 
d="M0 371q0 -166 95.5 -298.5t247.5 -185.5q6 -1 10 -1t6.5 1.5t4 3t2 5t0.5 4.5v6v7v88q-38 -4 -67.5 1t-45.5 14t-29 25.5t-17 25.5t-8 24q-4 10 -5 12q-9 15 -27 27.5t-27 20t-2 14.5q10 6 21 6.5t22 -4t22.5 -13.5t23 -22.5t24.5 -32.5q34 -51 119 -30q3 14 8.5 26.5
t13.5 23.5t18 20q-78 14 -130.5 50t-75 84.5t-22.5 109.5q0 87 55 151q-8 23 -9.5 47.5t3 45t6.5 27.5t6 17q23 2 48 -4.5t46 -18.5t30.5 -18t16.5 -11q57 16 128.5 16t129.5 -16q13 9 29 19t49 21.5t61 9.5q27 -71 7 -135q56 -64 56 -151q0 -61 -23 -109.5t-75.5 -84.5
t-130.5 -50q43 -43 43 -104v-129q0 -1 1 -3q0 -4 0.5 -6.5t2 -5.5t5 -4.5t9.5 -1.5q153 52 250.5 185.5t97.5 300.5q0 104 -40.5 199t-109 163.5t-163.5 109t-199 40.5q-212 0 -362 -150t-150 -362z" />
    <glyph glyph-name="uniE675" unicode="&#xe675;" horiz-adv-x="1025" 
d="M848 859q-2 8 -7 15t-12 12t-15 7.5t-16 2.5h-578q-18 0 -32 -10.5t-19 -26.5l-169 -612v-321q0 -9 2.5 -17t7.5 -15t12 -12t15 -7.5t17 -2.5h916q22 0 38 15.5t16 38.5l1 330zM228 832h562l168 -576h-892zM960 -64h-896v256h896v-256zM608 0q13 0 22.5 9.5t9.5 22.5v64
q0 13 -9.5 22.5t-22.5 9.5t-22.5 -9.5t-9.5 -22.5v-64q0 -13 9.5 -22.5t22.5 -9.5zM736.5 0q13.5 0 22.5 9.5t9 22.5v64q0 13 -9 22.5t-22.5 9.5t-23 -9.5t-9.5 -22.5v-64q0 -13 9.5 -22.5t23 -9.5zM864.5 0q13.5 0 22.5 9.5t9 22.5v64q0 13 -9 22.5t-22.5 9.5t-23 -9.5
t-9.5 -22.5v-64q0 -13 9.5 -22.5t23 -9.5z" />
    <glyph glyph-name="uniE676" unicode="&#xe676;" 
d="M512 896q-139 0 -257 -68.5t-186.5 -186.5t-68.5 -257t68.5 -257t186.5 -186.5t257 -68.5t257 68.5t186.5 186.5t68.5 257t-68.5 257t-186.5 186.5t-257 68.5zM256 482q0 -13 -9.5 -22.5t-22.5 -9.5t-22.5 9.5t-9.5 22.5v64q0 13 9.5 22.5t22.5 9.5t22.5 -9.5t9.5 -22.5
v-64zM767 348q-12 -83 -73 -144q-36 -36 -83.5 -55t-98.5 -19q-106 0 -182 74q-61 60 -73 144q-2 14 7.5 25t23.5 11q12 0 21 -8t11 -19q9 -62 55 -107q57 -56 137 -56t137 56q15 15 26.5 32t18.5 36t10 39q2 12 11 19.5t21 7.5q14 0 24 -11t7 -25zM831 482
q0 -13 -9.5 -22.5t-22.5 -9.5t-22.5 9.5t-9.5 22.5v64q0 13 9.5 22.5t22.5 9.5t22.5 -9.5t9.5 -22.5v-64z" />
    <glyph glyph-name="uniE677" unicode="&#xe677;" 
d="M512 832q91 0 174 -35q40 -17 76 -41t67 -55q9 -9 17 -19l16 -18q8 -10 15 -20t13.5 -20.5t12.5 -21t11.5 -21.5t10.5 -23q35 -83 35 -174t-35 -174q-34 -81 -96 -143q-9 -9 -19 -17l-18 -16q-10 -8 -20 -15t-20.5 -13.5t-21 -12.5t-21.5 -11.5t-23 -10.5
q-83 -35 -174 -35t-174 35q-81 34 -143 96t-96 143q-35 83 -35 174t35 174q17 40 41 76t55 67q62 62 143 96q83 35 174 35zM512 896q-139 0 -257 -68.5t-186.5 -186.5t-68.5 -257t68.5 -257t186.5 -186.5t257 -68.5t257 68.5t186.5 186.5t68.5 257t-68.5 257t-186.5 186.5
t-257 68.5zM224 450q-13 0 -22.5 9.5t-9.5 22.5v64q0 13 9.5 22.5t22.5 9.5t22.5 -9.5t9.5 -22.5v-64q0 -13 -9.5 -22.5t-22.5 -9.5zM799 450q-13 0 -22.5 9.5t-9.5 22.5v64q0 13 9.5 22.5t22.5 9.5t22.5 -9.5t9.5 -22.5v-64q0 -13 -9.5 -22.5t-22.5 -9.5zM192 319zM832 319
zM512 130q-106 0 -182 74q-61 60 -73 144q-2 14 7.5 25t23.5 11q12 0 21 -8t11 -19q9 -62 55 -107q57 -56 137 -56t137 56q15 15 26.5 32t18.5 36t10 39q2 12 11 19.5t21 7.5q14 0 24 -11t7 -25q-12 -83 -73 -144q-36 -36 -83.5 -55t-98.5 -19z" />
    <glyph glyph-name="uniE678" unicode="&#xe678;" 
d="M512 896q-139 0 -257 -68.5t-186.5 -186.5t-68.5 -257t68.5 -257t186.5 -186.5t257 -68.5t257 68.5t186.5 186.5t68.5 257t-68.5 257t-186.5 186.5t-257 68.5zM256 482q0 -13 -9.5 -22.5t-22.5 -9.5t-22.5 9.5t-9.5 22.5v64q0 13 9.5 22.5t22.5 9.5t22.5 -9.5t9.5 -22.5
v-64zM768 288q0 -14 -9 -23t-23 -9h-448q-8 0 -15.5 4t-12 11.5t-4.5 16.5q0 8 4.5 15.5t12 12t15.5 4.5h448q14 0 23 -9.5t9 -22.5zM831 482q0 -13 -9.5 -22.5t-22.5 -9.5t-22.5 9.5t-9.5 22.5v64q0 13 9.5 22.5t22.5 9.5t22.5 -9.5t9.5 -22.5v-64z" />
    <glyph glyph-name="uniE679" unicode="&#xe679;" 
d="M512 832q91 0 174 -35q40 -17 76 -41t67 -55q9 -9 17 -19l16 -18q8 -10 15 -20t13.5 -20.5t12.5 -21t11.5 -21.5t10.5 -23q35 -83 35 -174t-35 -174q-34 -81 -96 -143q-9 -9 -19 -17l-18 -16q-10 -8 -20 -15t-20.5 -13.5t-21 -12.5t-21.5 -11.5t-23 -10.5
q-83 -35 -174 -35t-174 35q-81 34 -143 96t-96 143q-35 83 -35 174t35 174q17 40 41 76t55 67q62 62 143 96q83 35 174 35zM512 896q-139 0 -257 -68.5t-186.5 -186.5t-68.5 -257t68.5 -257t186.5 -186.5t257 -68.5t257 68.5t186.5 186.5t68.5 257t-68.5 257t-186.5 186.5
t-257 68.5zM224 450q-13 0 -22.5 9.5t-9.5 22.5v64q0 13 9.5 22.5t22.5 9.5t22.5 -9.5t9.5 -22.5v-64q0 -13 -9.5 -22.5t-22.5 -9.5zM799 450q-13 0 -22.5 9.5t-9.5 22.5v64q0 13 9.5 22.5t22.5 9.5t22.5 -9.5t9.5 -22.5v-64q0 -13 -9.5 -22.5t-22.5 -9.5zM192 319zM832 319
zM736 256h-448q-8 0 -15.5 4t-12 11.5t-4.5 16.5q0 8 4.5 15.5t12 12t15.5 4.5h448q14 0 23 -9.5t9 -22.5q0 -14 -9 -23t-23 -9z" />
    <glyph glyph-name="uniE67A" unicode="&#xe67a;" 
d="M1024 64h-1024v-32q0 -13 9.5 -22.5t22.5 -9.5h447v32h64v-32h449q13 0 22.5 9.5t9.5 22.5v32zM960 704v-512h-896v512h896zM960 768h-896q-26 0 -45 -19t-19 -45v-512q0 -27 19 -45.5t45 -18.5h896q26 0 45 18.5t19 45.5v512q0 26 -19 45t-45 19z" />
    <glyph glyph-name="uniE67B" unicode="&#xe67b;" 
d="M1024 387l-242 402q-13 22 -38 22h-459q-12 0 -22.5 -5.5t-16.5 -16.5l-246 -410v-90v-259q0 -30 21.5 -51.5t51.5 -21.5h878q20 0 36.5 9.5t26.5 26.5t10 37v259v98zM938 316l-60 -27h-129q-16 -2 -26 -11l-115 -102h-192l-115 102q-10 9 -26 11h-189v66l222 371h413
l217 -363v-47z" />
    <glyph glyph-name="uniE67C" unicode="&#xe67c;" horiz-adv-x="1025" 
d="M773 305h248q2 12 2.5 25.5t0.5 27.5q0 124 -62 232q65 174 -15 256q-39 39 -136 32t-214 -59q-17 1 -36 1q-161 0 -286 -98.5t-163 -251.5q104 133 235 196q-16 -14 -68 -67q-168 -168 -242 -375q-58 -161 -27 -252q9 -25 23 -40q52 -47 133 -42.5t185 55.5
q98 -50 210 -50q151 0 271 87t167 226h-250q-13 -24 -32 -44t-42 -34t-50 -21.5t-55 -7.5q-58 0 -105.5 29t-74.5 78q-24 45 -24 96v1h407zM367 427q4 77 60.5 130.5t134 53.5t133.5 -53.5t61 -130.5h-389zM944 794q52 -53 4 -183q-80 122 -215 177q153 65 211 6v0zM98 -52
q-11 12 -17.5 27t-8 34t1 40.5t9 46t17 51t25.5 55.5q27 -76 78 -138t119 -103q-77 -35 -134 -39t-90 26z" />
    <glyph glyph-name="uniE67D" unicode="&#xe67d;" 
d="M1000 406l-465 481q-10 9 -23 9t-23 -9l-464 -480q-9 -9 -9 -22.5t9 -22.5q6 -6 14.5 -8.5t16.5 0t14 8.5l58 58v-484q0 -27 19 -45.5t45 -18.5h639q27 0 45.5 18.5t18.5 45.5v484l60 -60q5 -4 11 -6.5t12 -2.5t12 2.5t10 6.5q10 10 10 23t-10 23zM449 -64v256h127v-256
h-127zM831 -64h-191v256q0 26 -18.5 45t-45.5 19h-127q-26 0 -45 -19t-19 -45v-256h-193v548l320 335l319 -335v-548z" />
    <glyph glyph-name="uniE67E" unicode="&#xe67e;" horiz-adv-x="1025" 
d="M560 371q-6 -6 -8 -15t1 -17q11 -27 11 -56q0 -63 -45 -108l-197 -197q-45 -45 -108.5 -45t-108 44.5t-44.5 108t45 108.5q137 137 192 190q9 9 9 22t-9 22t-21.5 9t-21.5 -9l-192 -192q-63 -62 -63 -150.5t63 -151.5q62 -62 150.5 -62t151.5 62l197 198q46 46 58.5 109
t-10.5 120q-6 15 -22 18.5t-28 -8.5zM464 397q6 6 8 15t-1 17q-11 27 -11 56q0 63 45 108l198 197q44 45 107.5 45t108 -44.5t44.5 -108t-44 -108.5q-16 -15 -40.5 -39t-76 -75.5t-76.5 -75.5q-9 -9 -9 -22t9 -22t21.5 -9t21.5 9q192 190 192 192q63 62 63 150.5t-63 151.5
q-62 62 -150.5 62t-150.5 -62l-198 -198q-46 -46 -58.5 -109t10.5 -120q6 -15 22 -18.5t28 8.5z" />
    <glyph glyph-name="uniE67F" unicode="&#xe67f;" horiz-adv-x="1025" 
d="M888.5 697q-9.5 9 -22.5 9t-23 -9l-285 -435l-115 116q-13 12 -30 9q-10 -2 -17 -9l-258 -258q-10 -10 -10 -23t10 -23q4 -4 10 -6.5t12.5 -2.5t12 2.5t10.5 6.5l236 237l116 -116q10 -10 23 -10q14 0 24 10l306 457q10 9 10 22.5t-9.5 22.5zM993 -64h-897
q-13 0 -22.5 9.5t-9.5 22.5v896q0 13 -9.5 22.5t-22.5 9.5t-22.5 -9.5t-9.5 -22.5v-928q0 -26 19 -45t45 -19h929q13 0 22.5 9.5t9.5 22.5t-9.5 22.5t-22.5 9.5z" />
    <glyph glyph-name="uniE680" unicode="&#xe680;" 
d="M885 405q-41 41 -95 60q62 26 100 82t38 125q0 93 -65.5 158.5t-158.5 65.5q-29 0 -56 -7t-50.5 -20t-43.5 -31t-35.5 -40.5t-24.5 -48.5q-32 39 -77 61t-97 22q-46 0 -87 -18t-71 -48t-48 -71.5t-18 -86.5q0 -69 38 -125t100 -82q-54 -19 -95 -60q-75 -75 -75 -181v-191
q0 -40 28 -68t68 -28h320q31 0 55.5 18t34.5 46h294q26 0 48 13t35 35t13 48v191q0 106 -75 181zM591 785q47 47 113 47t113 -47q23 -23 35 -52t12 -61q0 -66 -47 -113t-113 -47t-113 47t-47 113t47 113zM207 495q-11 11 -20 24t-15 27.5t-9 30t-3 31.5q0 66 47 113
q23 23 52 35t61 12q21 0 41.5 -5.5t38.5 -16t33 -25.5t25.5 -33t16 -38.5t5.5 -41.5q0 -66 -47 -113q-23 -23 -52 -35t-61 -12t-61 12t-52 35zM512 -31q0 -13 -9.5 -22.5t-22.5 -9.5h-320q-9 0 -16 4.5t-11.5 11.5t-4.5 16v191q0 79 56 136q28 27 63 41.5t73 14.5
q79 0 136 -56q1 -2 2 -3q54 -55 54 -133v-191zM485 356q-36 30 -79 45q43 18 75.5 52t48.5 78q9 -11 19 -20.5t21 -18t23 -15.5t25 -12q-54 -19 -95 -60q-22 -23 -38 -49zM896 33q0 -9 -4.5 -16t-11.5 -11.5t-16 -4.5h-288v159q0 80 -46 146q15 30 38 53q57 57 136 57
q19 0 37.5 -3.5t35.5 -11t33 -18t30 -23.5q56 -57 56 -136v-191z" />
    <glyph glyph-name="uniE681" unicode="&#xe681;" 
d="M321 415q0 -9 4.5 -16t11.5 -11.5t16 -4.5h562l-155 -155q-9 -9 -9 -22.5t9 -22.5t22.5 -9t22.5 9l210 209q9 10 9 23t-9 23l-210 209q-9 9 -22.5 9t-22.5 -9t-9 -22.5t9 -22.5l155 -155h-562q-13 0 -22.5 -9.5t-9.5 -22.5zM992 128q-13 0 -22.5 -9.5t-9.5 -22.5v-160
h-896v896h896v-159q0 -13 9.5 -22.5t22.5 -9.5t22.5 9.5t9.5 22.5v159q0 26 -19 45t-45 19h-896q-26 0 -45 -19t-19 -45v-896q0 -26 19 -45t45 -19h896q26 0 45 19t19 45v160q0 13 -9.5 22.5t-22.5 9.5z" />
    <glyph glyph-name="uniE682" unicode="&#xe682;" 
d="M1024 709v0q-1 16 -10 29.5t-23 21.5t-31 8h-896q-26 0 -45 -19t-19 -45v-640q0 -26 19 -45t45 -19h896q26 0 45 19t19 45v640v2v3zM912 704l-400 -303l-382 303h782zM960 64h-896v611l428 -339q19 -16 39 -1l429 325v-596z" />
    <glyph glyph-name="uniE683" unicode="&#xe683;" 
d="M991 639h-959q-13 0 -22.5 9.5t-9.5 22.5t9.5 22.5t22.5 9.5h959q13 0 22.5 -9.5t9.5 -22.5t-9.5 -22.5t-22.5 -9.5zM672 321h-640q-9 0 -16 4.5t-11.5 12t-4.5 15.5q0 14 9.5 23t22.5 9h640q8 0 15.5 -4t12 -11.5t4.5 -16.5q0 -13 -9.5 -22.5t-22.5 -9.5zM991 1h-959
q-13 0 -22.5 9.5t-9.5 22.5t9.5 22.5t22.5 9.5h959q13 0 22.5 -9.5t9.5 -22.5t-9.5 -22.5t-22.5 -9.5zM832 254v263q0 7 6.5 10t11.5 -1l170 -132q4 -3 4 -8.5t-4 -9.5l-170 -131q-3 -2 -6 -2.5t-5.5 1t-4.5 4t-2 6.5z" />
    <glyph glyph-name="uniE684" unicode="&#xe684;" 
d="M1 671q0 13 9.5 22.5t22.5 9.5h959q13 0 22.5 -9.5t9.5 -22.5t-9.5 -22.5t-22.5 -9.5h-959q-13 0 -22.5 9.5t-9.5 22.5zM320 353q0 14 9.5 23t22.5 9h640q9 0 16 -4t11.5 -11.5t4.5 -16.5q0 -13 -9.5 -22.5t-22.5 -9.5h-640q-8 0 -15.5 4.5t-12 12t-4.5 15.5zM1 33
q0 13 9.5 22.5t22.5 9.5h959q13 0 22.5 -9.5t9.5 -22.5t-9.5 -22.5t-22.5 -9.5h-959q-13 0 -22.5 9.5t-9.5 22.5zM174 245l-170 131q-4 4 -4 9.5t4 8.5l170 132q5 4 11.5 1t6.5 -10v-264q0 -6 -6.5 -9t-11.5 1z" />
    <glyph glyph-name="uniE685" unicode="&#xe685;" 
d="M832 822q0 30 -21 52t-50 22h-498q-14 0 -27.5 -6t-23 -16t-15 -23.5t-5.5 -28.5v-877q0 -30 21 -51.5t50 -21.5l498 2q29 0 50 21.5t21 51.5v875zM256 822q0 10 7 10h498q2 0 4.5 -3t2.5 -7v-693h-512v693zM768 -53q-1 -8 -7 -9l-498 -2v0q-3 0 -5 2.5t-2 6.5v120h512
v-118zM512 -32q-13 0 -22.5 9t-9.5 23q0 13 9.5 22.5t22.5 9.5t22.5 -9.5t9.5 -22.5t-9.5 -22.5t-22.5 -9.5z" />
    <glyph glyph-name="uniE686" unicode="&#xe686;" 
d="M512 832q58 0 111 -22q51 -22 91 -61q19 -20 34.5 -42.5t26.5 -48.5q22 -53 23 -110v-230q0 -24 9 -46t26 -39v0l43 -43h-728l45 45q4 4 7.5 8.5t6.5 9t5.5 9t4.5 9.5q4 10 6.5 21t2.5 22v233q0 58 22 111q22 51 62 91q40 39 91 61q53 22 111 22zM512 896
q-57 0 -110.5 -17.5t-96.5 -50t-75 -75t-50 -96t-18 -109.5v-234q0 -10 -3.5 -18.5t-10.5 -15.5l-67 -67q-8 -8 -12.5 -19t-4.5 -23v-10q0 -7 2.5 -13.5t7 -11.5t11 -7.5t13.5 -2.5h828q7 0 13.5 2.5t11 7.5t7 11.5t2.5 13.5v10v5v6l-2 4q0 3 -1 6l-2 4q-1 3 -3 5l-2 4l-4 4
q-1 2 -3 4l-65 65q-8 8 -12 18t-4 21v231q-1 94 -47.5 174.5t-127 127t-175.5 46.5zM512 -128q-71 0 -125 45t-67 113q-3 15 6.5 26.5t24.5 11.5q8 0 14.5 -3.5t11 -9t5.5 -13.5q10 -46 46 -76t84 -30q31 0 59 14t46.5 38t24.5 54q2 11 10.5 18.5t20.5 7.5q15 0 24.5 -11.5
t6.5 -26.5q-13 -68 -67 -113t-125 -45z" />
    <glyph glyph-name="uniE687" unicode="&#xe687;" 
d="M935 661q-15 15 -33 28t-37.5 23t-40 16.5t-42.5 10t-44 3.5q-27 0 -53.5 -5t-51.5 -15q-52 -21 -92 -60l-268 -269q-46 -45 -45.5 -110t46 -110.5t109.5 -45.5h1q64 0 109 45l236 236q9 9 9 22.5t-9 22.5q-3 3 -7 5t-7.5 3.5t-8 1.5t-8.5 -1.5t-7.5 -3.5t-6.5 -5
l-236 -235q-9 -9 -19 -15t-21.5 -9t-23.5 -3h-1q-38 0 -64.5 27t-26.5 65q-1 18 6 35t20 30l269 268q62 62 151 62q43 0 82.5 -16t69.5 -47q63 -63 63 -152t-62 -151l-285 -285q-91 -91 -221 -91t-222 92t-92 222t91 221l367 368q23 23 0 45q-3 4 -7.5 6.5t-9.5 3t-10 0
t-9.5 -3t-8.5 -6.5l-368 -368q-53 -53 -82 -124q-27 -68 -27 -142t28 -142q28 -71 83 -125q54 -54 125 -83q67 -28 142 -28h1q73 0 141 27q70 28 124 82l285 285q40 40 61 93q10 25 15 51t5 53q0 116 -82 198z" />
    <glyph glyph-name="uniE688" unicode="&#xe688;" horiz-adv-x="1025" 
d="M827 832q15 0 36 -20q22 -20 50 -64q37 -57 45 -127q4 -37 0 -75.5t-16 -80.5q-23 -78 -73 -159q-26 -40 -57 -78.5t-68 -75.5q-52 -52 -108 -93q-55 -41 -112 -68q-55 -27 -109 -41t-103 -14q-92 0 -164 47q-8 5 -15 9.5t-15.5 11t-16.5 13t-15 13.5q-20 21 -22 37
q0 5 2 11t10 14q45 45 85 73q47 32 74 32q4 0 8 -1q5 -2 16 -12q6 -5 13.5 -12t13.5 -13t17 -16q21 -21 34 -33t23 -19v-1h1q22 -15 50 -15q26 0 57 13t69 41v0q48 34 122 105l1 1l2 1q87 93 123 149q18 28 27 53q4 11 6 20.5t3 19.5q1 18 -3.5 32.5t-12.5 25.5
q-10 15 -49 54l-3 3v0q-30 30 -41 43q-10 11 -13 17q-1 3 -1 7t0.5 8.5t2 9.5t4 10.5t5.5 11.5t6.5 12.5t8.5 12.5q28 45 79 95v0q12 12 23 12zM827 896q-38 0 -68 -30q-55 -55 -88 -106q-49 -75 -33 -126q4 -11 13.5 -24.5t21 -25.5t35.5 -36q37 -38 45 -49q15 -21 -22 -80
q-7 -11 -15.5 -22.5t-18 -23.5t-19.5 -23.5t-21 -24t-20.5 -22.5t-21.5 -22q-32 -31 -60.5 -56t-54.5 -44q-33 -24 -54.5 -33t-34.5 -9q-8 0 -14 4q-12 9 -49 45q-35 35 -53 50t-33 20q-13 4 -27 4q-16 0 -33 -5t-36.5 -15t-40.5 -25q-45 -31 -95 -80q-34 -34 -29 -77
q6 -63 112 -131q88 -57 199 -57q116 0 240.5 61.5t236.5 173.5q79 78 134 165q55 88 80 176q28 94 18.5 179.5t-54.5 155.5q-33 50 -66.5 81.5t-73.5 31.5z" />
    <glyph glyph-name="uniE689" unicode="&#xe689;" 
d="M960 832h-896q-26 0 -45 -19t-19 -45v-768q0 -26 19 -45t45 -19h896q26 0 45 19t19 45v768q0 26 -19 45t-45 19zM64 768h896v-714l-236 348q-7 12 -21 14t-25 -7l-154 -125l-174 243q-7 9 -17.5 12t-21 -1.5t-15.5 -14.5l-232 -448v693zM919 0h-822l231 447l184 -255
l179 145zM737 642q13 0 22.5 -9.5t9.5 -22.5t-9.5 -22.5t-22.5 -9.5t-22.5 9.5t-9.5 22.5t9.5 22.5t22.5 9.5zM737 706q-40 0 -68 -28t-28 -68t28 -68t68 -28t68 28t28 68t-28 68t-68 28z" />
    <glyph glyph-name="uniE68A" unicode="&#xe68a;" 
d="M466 -128q96 0 181 36t150 101l-331 328v465q-75 0 -146.5 -23.5t-129 -66.5t-100.5 -100t-66.5 -128t-23.5 -147q0 -94 37 -180.5t99.5 -148.5t149 -99t180.5 -37v0zM531 404h493q0 100 -39 191t-105 157t-157.5 105t-191.5 39v-492zM557 339l332 -327q42 42 72 93.5
t46.5 111t16.5 122.5h-467z" />
    <glyph glyph-name="uniE68B" unicode="&#xe68b;" 
d="M512 512q-13 0 -22.5 9.5t-9.5 22.5v320q0 13 9.5 22.5t22.5 9.5t22.5 -9.5t9.5 -22.5v-320q0 -13 -9.5 -22.5t-22.5 -9.5zM638 841v-6q0 -20 20 -27q14 -5 28 -11q81 -34 143 -96q20 -21 38 -43.5t32.5 -47.5t25.5 -52q35 -83 35 -174t-35 -174q-34 -81 -96 -143
q-16 -15 -32.5 -29t-34.5 -26t-37 -22t-39 -19q-83 -35 -174 -35t-174 35q-81 34 -143 96t-96 143q-35 83 -35 174t35 174q34 81 96 143t143 96q14 6 26 10q22 8 22 30q0 11 -6.5 19.5t-16 11.5t-20.5 0q-152 -53 -247.5 -185.5t-95.5 -298.5q0 -139 68.5 -257t186.5 -186.5
t257 -68.5t257 68.5t186.5 186.5t68.5 257q0 167 -97 300t-250 185q-15 5 -27 -4t-12 -24z" />
    <glyph glyph-name="uniE68C" unicode="&#xe68c;" horiz-adv-x="1025" 
d="M736 830q-27 0 -53 -5t-50 -14.5t-45.5 -23.5t-40.5 -31t-35 -38q-40 52 -98.5 82t-125.5 30q-119 0 -204 -89.5t-84 -214.5q1 -69 29.5 -129.5t77.5 -102.5q3 -3 9 -8q10 -9 170 -154.5t205 -185.5q3 -3 6.5 -4.5t7 -2.5t7.5 -1q12 0 21 8q29 26 105 95t157.5 143
t119.5 108q51 42 80 103.5t29 131.5q0 125 -84.5 214t-203.5 89z" />
    <glyph glyph-name="uniE68D" unicode="&#xe68d;" 
d="M512 832q9 0 17.5 -0.5t18 -1.5t18.5 -2l16 -46l10 -31l31 -9q33 -10 63 -26l29 -15l29 14l43 22q22 -17 41.5 -36.5t36.5 -40.5l-22 -43l-14 -30l15 -29q8 -15 14.5 -30.5t11.5 -31.5l9 -31l31 -11l46 -15q4 -29 4 -54v-1q0 -8 -0.5 -17t-1.5 -18.5t-2 -18.5l-46 -16
l-31 -10l-10 -32q-9 -32 -25 -62l-16 -29l15 -29l22 -43q-18 -23 -36 -42h-1q-18 -18 -41 -36l-43 22l-29 14l-29 -15q-30 -15 -63 -26l-31 -9l-10 -31l-15 -46q-29 -4 -55 -4q-13 0 -26.5 1t-28.5 3l-15 46l-10 31l-32 10q-16 5 -31.5 11t-30.5 14l-29 16l-29 -15l-43 -22
q-23 18 -42 36l-18 20q-9 10 -18 22l22 43l14 29l-15 29q-16 31 -25 62l-10 32l-31 10l-46 15q-2 15 -3 28.5t-1 26.5q0 26 4 55l46 15l31 10l9 32q10 32 26 62l15 29l-14 29l-22 43q34 44 77 78l44 -22l29 -15l29 16q30 15 62 25l32 10l10 31l15 46q15 2 28.5 3t26.5 1z
M512 896q-37 0 -81 -7l-22 -4l-28 -83q-39 -12 -73 -30l-78 39l-18 -13q-22 -16 -42 -34t-38.5 -38t-34.5 -42l-13 -18l40 -79q-19 -35 -31 -73l-83 -27l-3 -22q-7 -44 -7 -81t7 -81l3 -22l83 -28q12 -38 31 -73l-39 -78l13 -18q24 -34 52 -62q9 -9 19 -18t20.5 -17.5
t22.5 -16.5l18 -13l78 39q36 -19 73 -30l28 -83l22 -4q11 -2 21.5 -3t20.5 -2t19.5 -1.5t19.5 -0.5q19 0 39 1.5t42 5.5l22 4l27 83q38 11 74 30l78 -39l18 13q18 13 33 26t29 26q6 7 13 14t13 15l14 16q6 8 12 17l13 18l-39 79q18 35 30 73l83 27l4 22q3 22 5 42.5t2 38.5
q0 38 -7 81l-4 22l-83 28q-12 38 -30 73l39 78l-13 18q-24 33 -53 62t-62 53l-18 13l-78 -39q-35 18 -73 30l-27 83l-22 3q-44 7 -81 7zM512 510q52 0 89 -37t37 -89q0 -17 -4.5 -33t-12.5 -30t-20 -26q-18 -18 -41 -27.5t-48 -9.5q-52 0 -89 37t-37 89t37 89t89 37z
M512 574q-79 0 -134.5 -55.5t-55.5 -134.5t55.5 -134.5t134.5 -55.5t134.5 55.5t55.5 134.5t-55.5 134.5t-134.5 55.5z" />
    <glyph glyph-name="uniE68E" unicode="&#xe68e;" 
d="M774 652q33 0 61 16t44.5 44.5t16.5 61.5t-16.5 61t-44.5 44.5t-61 16.5q-51 0 -87 -36t-36 -86q0 -27 11 -51l-196 -178q-25 15 -54 23t-60 8q-93 0 -158.5 -65.5t-65.5 -158.5q0 -45 18 -86.5t48 -71.5t71.5 -48t86.5 -18q64 0 118 34l129 -117q-11 -24 -11 -51
q0 -50 35.5 -86t86 -36t86.5 36t36 86.5t-36 86.5t-86 36q-39 0 -70 -23l-121 109q57 64 57 149q0 43 -15.5 82.5t-44.5 69.5l187 170q32 -22 71 -22zM773.5 832q24.5 0 41.5 -17t17 -41t-17 -41t-41.5 -17t-41.5 17t-17 41t17 41t41.5 17zM239 239q-23 23 -35 52t-12 61
q0 66 47 113t113 47t113 -47q23 -22 35 -51.5t12 -61.5q0 -16 -3 -31.5t-9 -29.5t-14.5 -27.5t-20.5 -24.5q-22 -23 -51.5 -35t-61.5 -12q-66 0 -113 47zM710 52q24 0 41 -17t17 -41t-17 -41t-41 -17t-41 17t-17 41q0 16 7.5 29.5t21 21t29.5 7.5z" />
    <glyph glyph-name="uniE68F" unicode="&#xe68f;" horiz-adv-x="1025" 
d="M928 768h-832q-40 0 -68 -28t-28 -68v-578q0 -40 28 -68t68 -28h334q8 0 15.5 4.5t12 11.5t4.5 16q0 13 -9.5 22.5t-22.5 9.5h-334q-13 0 -22.5 9.5t-9.5 22.5v578q0 13 9.5 22.5t22.5 9.5h832q14 0 23 -9.5t9 -22.5v-546q0 -13 9.5 -22.5t22.5 -9.5q14 0 23 9.5t9 22.5
v546q0 26 -12.5 48t-35 35t-48.5 13zM577 543q0 13 -9.5 22.5t-22.5 9.5h-384q-13 0 -22.5 -9.5t-9.5 -22.5t9.5 -22.5t22.5 -9.5h384q8 0 15.5 4.5t12 11.5t4.5 16zM449 416q0 8 -4.5 15.5t-11.5 12t-16 4.5h-256q-13 0 -22.5 -9.5t-9.5 -22.5q0 -9 4.5 -16.5t11.5 -11.5
t16 -4h256q9 0 16 4t11.5 11.5t4.5 16.5zM161 320q-13 0 -22.5 -9.5t-9.5 -22.5t9.5 -22.5t22.5 -9.5h192q13 0 22.5 9.5t9.5 22.5q0 9 -4.5 16t-11.5 11.5t-16 4.5h-192zM842 136q-10 10 -21 18.5t-23 14.5q17 18 26 40.5t9 47.5q0 53 -37.5 90.5t-90.5 37.5t-90.5 -37.5
t-37.5 -90.5q0 -51 35 -88q-8 -4 -15.5 -9t-14.5 -11t-14 -13q-27 -27 -41.5 -61.5t-14.5 -72.5v-35q0 -13 9.5 -22.5t22.5 -9.5q14 0 23 9.5t9 22.5v35q0 26 10 48.5t27.5 40.5t40.5 27.5t48 9.5h6q16 0 32 -4.5t30 -12.5t26 -20q18 -18 27.5 -41t9.5 -48v-35
q0 -13 9.5 -22.5t22.5 -9.5t22.5 9.5t9.5 22.5v35q0 79 -55 134zM704.5 321q26.5 0 45.5 -18.5t19 -45.5q0 -9 -2.5 -17t-6.5 -15t-10 -13t-13 -10.5t-15 -6.5t-17 -2q-27 0 -45.5 18.5t-18.5 45.5t18.5 45.5t45 18.5z" />
    <glyph glyph-name="uniE690" unicode="&#xe690;" 
d="M1015 -73l-283 282q48 56 74 125.5t26 145.5q0 172 -122 294t-294 122t-294 -122t-122 -294t122 -294t294 -122q154 0 271 100l282 -283q10 -9 23 -9t23 9q9 10 9 23t-9 23zM553 156q-65 -28 -137 -28q-18 0 -35.5 1.5t-34.5 5t-34 9t-33 12.5q-63 26 -112 75t-75 112
q-28 65 -28 137t28 137q8 21 19.5 40.5t25.5 37.5t30 34q49 49 112 75q33 14 67 21t70 7q72 0 137 -28q31 -13 59.5 -32t52.5 -43q49 -49 75 -112q10 -22 16 -44.5t9 -45.5t3 -47q0 -72 -28 -137q-26 -63 -75 -112t-112 -75z" />
    <glyph glyph-name="uniE691" unicode="&#xe691;" 
d="M512 512q-13 0 -22.5 9.5t-9.5 22.5v320q0 13 9.5 22.5t22.5 9.5t22.5 -9.5t9.5 -22.5v-320q0 -13 -9.5 -22.5t-22.5 -9.5zM638 841v-6q0 -20 20 -27q14 -5 28 -11q81 -34 143 -96q20 -21 38 -43.5t32.5 -47.5t25.5 -52q35 -83 35 -174t-35 -174q-34 -81 -96 -143
q-16 -15 -32.5 -29t-34.5 -26t-37 -22t-39 -19q-83 -35 -174 -35t-174 35q-81 34 -143 96t-96 143q-35 83 -35 174t35 174q34 81 96 143t143 96q14 6 26 10q22 8 22 30q0 11 -6.5 19.5t-16 11.5t-20.5 0q-152 -53 -247.5 -185.5t-95.5 -298.5q0 -139 68.5 -257t186.5 -186.5
t257 -68.5t257 68.5t186.5 186.5t68.5 257q0 167 -97 300t-250 185q-15 5 -27 -4t-12 -24z" />
    <glyph glyph-name="uniE692" unicode="&#xe692;" horiz-adv-x="1025" 
d="M993 191h-711l49 66l582 1q7 0 13.5 3t11 9t6.5 14l80 447q1 7 -1 13.5t-6 12.5q-9 11 -24 11l-742 2l-8 37q-1 5 -3 8.5t-5 7t-6.5 5.5t-8 3t-8.5 1h-180q-9 0 -16 -4t-11.5 -11.5t-4.5 -15.5q0 -13 9.5 -22.5t22.5 -9.5h154l29 -138l68 -331l-89 -122q-5 -7 -6 -16
t3 -17q2 -4 5 -7.5t7 -5.5t8 -3.5t9 -1.5h94q-36 -32 -36 -81q0 -30 14.5 -55t40 -40t55.5 -15q46 0 78 32.5t32 77.5q0 49 -36 81h230q-36 -32 -36 -81q0 -45 32 -77.5t77.5 -32.5t78 32.5t32.5 77.5q0 16 -4.5 31t-12.5 27.5t-19 22.5h153q6 0 12 2.5t10.5 7t7 10.5
t2.5 12q0 5 -2 10t-4.5 9t-6.5 6.5t-9 4.5t-10 2zM956 706l-69 -386l-541 -1l-82 389zM388 0q-19 0 -32.5 13.5t-13.5 32.5q0 13 6 23.5t17 16.5t23 6q19 0 32.5 -13.5t13.5 -32.5t-13.5 -32.5t-32.5 -13.5zM766 0q-12 0 -23 6.5t-17 17t-6 23t6 23t17 16.5t23 6t23 -6
t17 -16.5t6 -23.5q0 -19 -13.5 -32.5t-32.5 -13.5z" />
    <glyph glyph-name="uniE693" unicode="&#xe693;" horiz-adv-x="1025" 
d="M512 832q6 0 10 -7v-1l117 -248l15 -30l33 -5l263 -40q1 0 2 -1l4 -2q1 -1 2 -3t1 -3q3 -11 -4 -18l-189 -192l-23 -24l5 -32l45 -272q2 -11 -6 -16v0l-5 -2q-2 0 -5 1l-234 129l-31 17l-31 -17l-234 -129h-1q-2 -1 -4 -1q-1 0 -2.5 0.5t-2.5 1.5v0q-4 2 -5.5 6.5
t-0.5 9.5l45 272l5 32l-23 24l-190 193q-6 7 -3 17q2 8 9 9l263 40l33 5l15 31l117 248q4 7 10 7zM512 896q-22 0 -40 -12t-28 -32l-117 -248l-262 -40q-22 -3 -38.5 -17.5t-23 -36t-1.5 -43t21 -37.5l190 -193l-45 -273q-4 -22 4 -43t26 -34q10 -7 21 -11t23 -4q19 0 36 9
l234 129l235 -129q16 -9 35 -9q25 0 44 15q18 13 26 34t4 43l-44 273l189 193q10 10 16 23.5t7 28t-4 28.5q-6 22 -22.5 36.5t-38.5 17.5l-262 40l-117 248q-10 20 -28 32t-40 12z" />
    <glyph glyph-name="uniE694" unicode="&#xe694;" 
d="M1020.5 510.5q-6.5 21.5 -23 36t-38.5 17.5l-262 40l-117 248q-10 20 -28 32t-40 12t-40 -12t-28 -32l-117 -248l-262 -40q-22 -3 -38.5 -17.5t-23 -36t-1.5 -43t21 -37.5l190 -193l-45 -273q-4 -22 4 -43t26 -34q10 -7 21 -11t23 -4q19 0 36 9l234 129l235 -129
q16 -9 35 -9q25 0 44 15q18 13 26 34t4 43l-44 273l189 193q16 15 21 37t-1.5 43.5z" />
    <glyph glyph-name="uniE695" unicode="&#xe695;" 
d="M512 33q14 0 23.5 -9.5t9.5 -23.5t-9.5 -23.5t-23.5 -9.5t-23.5 9.5t-9.5 23.5t9.5 23.5t23.5 9.5zM959 832q0 26 -19 45t-45 19h-765q-17 0 -32 -8.5t-23.5 -23.5t-8.5 -32v-896q0 -27 19 -45.5t46 -18.5l764 2q17 0 32 8.5t23.5 23t8.5 32.5v894zM892 -30
q0 -13 -9.5 -22.5t-22.5 -9.5h-695q-13 0 -22.5 9.5t-9.5 22.5v91h759v-91zM892 125h-759v668q0 10 4 18.5t11.5 13t16.5 4.5h695q13 0 22.5 -10.5t9.5 -25.5v-668z" />
    <glyph glyph-name="uniE696" unicode="&#xe696;" 
d="M980 413q-8 11 -16.5 21.5t-18 20t-20 18t-21.5 16.5q-1 25 -6.5 49.5t-15.5 46.5q-11 27 -28 51t-39 46q-14 14 -30 26t-33 21.5t-35 16.5q-54 22 -116 22q-15 0 -30 -1.5t-29.5 -4.5t-29 -7t-28 -9.5t-26.5 -12.5t-26 -16q-45 -30 -76 -73q-7 2 -13.5 3.5t-13 2.5
t-13 1.5t-13.5 0.5q-37 0 -70 -13.5t-59 -39.5q-27 -26 -41 -58q-7 -16 -10 -33.5t-3 -36.5q0 -13 1 -26q-38 -22 -67 -57q-54 -65 -54 -149q0 -50 18 -93q18 -42 53.5 -76.5t79 -52t92.5 -17.5h508q55 0 104 19.5t88.5 58.5t59.5 86q21 49 21 104q0 79 -44 145zM781 371
q-9 -9 -22.5 -9t-22.5 9l-95 95v-306q0 -6 -2.5 -12t-7 -10.5t-10 -7t-12.5 -2.5q-9 0 -16 4.5t-11.5 11.5t-4.5 16v306l-95 -95q-9 -9 -22.5 -9t-22.5 9q-5 5 -7 11t-2 12t2 12t7 11l149 149q10 9 23 9t23 -9l149 -149q6 -6 8 -14.5t0 -16.5t-8 -15z" />
    <glyph glyph-name="uniE697" unicode="&#xe697;" 
d="M602 704q24 0 47 -4.5t44 -12.5v0q43 -17 77 -51l10 -10q5 -5 9 -10t8 -10.5t7 -11.5l8 -10l6 -12t5 -12q7 -17 11.5 -35.5t5.5 -39.5l2 -32l27 -17q32 -21 55 -54l3 -5q8 -12 14.5 -25t10.5 -27q8 -27 8 -57q0 -42 -15 -78q-16 -36 -46.5 -66t-67.5 -45q-19 -7 -39 -11
t-41 -4h-508q-37 0 -69 13v0q-10 4 -20 10t-19.5 13t-17.5 15q-27 26 -40 57v0q-13 31 -13 67q0 30 10 57.5t29 50.5v1q22 26 50 42l38 22l-6 43q-1 4 -1 8v9q0 23 8 44v0q9 21 27 38q17 17 38 25q11 5 22.5 7t23.5 2q19 0 35 -5l43 -13l26 37q12 16 27.5 30.5t33.5 26.5v0
q60 40 134 40zM602 768q-16 0 -31 -1.5t-29.5 -4.5t-29 -7t-28 -9.5t-26.5 -12.5t-26 -16q-45 -30 -76 -73q-13 4 -26 6t-27 2q-37 0 -70 -13.5t-59 -39.5q-27 -26 -40 -58q-7 -16 -10.5 -33.5t-3.5 -36.5q0 -13 1 -26q-38 -22 -67 -57q-54 -65 -54 -149q0 -50 18 -93
q18 -42 53.5 -76.5t79 -52t92.5 -17.5h508q55 0 104 19.5t88.5 58.5t59.5 86q21 49 21 104q0 19 -3 38t-8.5 37.5t-13.5 35.5t-19 34q-15 23 -34 42t-42 34q-3 51 -22 97q-23 52 -67 96q-22 21 -46.5 37t-51.5 27q-53 22 -115 22zM641 160v306l95 -95q6 -6 14 -8t16.5 0
t14.5 8q9 10 9 23t-9 23l-149 149q-7 6 -15 8.5t-16.5 0t-14.5 -8.5l-149 -149q-9 -10 -9 -23t9 -23q9 -9 22.5 -9t22.5 9l95 95v-306q0 -13 9.5 -22.5t22.5 -9.5t22.5 9.5t9.5 22.5z" />
    <glyph glyph-name="uniE698" unicode="&#xe698;" 
d="M602 704q24 0 47 -4.5t44 -12.5v0q43 -17 77 -51l10 -10q5 -5 9 -10t8 -10.5t7 -11.5l8 -10l6 -12t5 -12q7 -17 11.5 -35.5t5.5 -39.5l2 -32l27 -17q32 -21 55 -54l3 -5q8 -12 14.5 -25t10.5 -27q8 -27 8 -57q0 -42 -15 -78q-16 -36 -46.5 -66t-67.5 -45q-19 -7 -39 -11
t-41 -4h-508q-37 0 -69 13v0q-10 4 -20 10t-19.5 13t-17.5 15q-27 26 -40 57v0q-13 31 -13 67q0 30 10 57.5t29 50.5v1q22 26 50 42l38 22l-6 43q-1 4 -1 8v9q0 23 8 44v0q9 21 27 38q17 17 38 25q11 5 22.5 7t23.5 2q19 0 35 -5l43 -13l26 37q12 16 27.5 30.5t33.5 26.5v0
q60 40 134 40zM602 768q-16 0 -31 -1.5t-29.5 -4.5t-29 -7t-28 -9.5t-26.5 -12.5t-26 -16q-45 -30 -76 -73q-13 4 -26 6t-27 2q-37 0 -70 -13.5t-59 -39.5q-27 -26 -40 -58q-7 -16 -10.5 -33.5t-3.5 -36.5q0 -13 1 -26q-38 -22 -67 -57q-54 -65 -54 -149q0 -50 18 -93
q18 -42 53.5 -76.5t79 -52t92.5 -17.5h508q55 0 104 19.5t88.5 58.5t59.5 86q21 49 21 104q0 19 -3 38t-8.5 37.5t-13.5 35.5t-19 34q-15 23 -34 42t-42 34q-3 51 -22 97q-23 52 -67 96q-22 21 -46.5 37t-51.5 27q-53 22 -115 22zM609 575q-13 0 -22.5 -9t-9.5 -23v-306
l-95 95q-9 9 -22.5 9t-22.5 -9q-5 -5 -7 -11t-2 -12t2 -12t7 -10l149 -150q10 -9 23 -9t23 9l149 150q9 9 9 22.5t-9 22.5q-5 5 -11 7t-12 2t-12 -2t-10 -7l-95 -95v306q0 14 -9.5 23t-22.5 9z" />
    <glyph glyph-name="uniE699" unicode="&#xe699;" 
d="M602 704q24 0 47 -4.5t44 -12.5v0q43 -17 77 -51l10 -10q5 -5 9 -10t8 -10.5t7 -11.5l8 -10l6 -12t5 -12q7 -17 11.5 -35.5t5.5 -39.5l2 -32l27 -17q32 -21 55 -54l3 -5q8 -12 14.5 -25t10.5 -27q8 -27 8 -57q0 -42 -15 -78q-16 -36 -46.5 -66t-67.5 -45q-19 -7 -39 -11
t-41 -4h-508q-37 0 -69 13v0q-10 4 -20 10t-19.5 13t-17.5 15q-27 26 -40 57v0q-13 31 -13 67q0 30 10 57.5t29 50.5v1q22 26 50 42l38 22l-6 43q-1 4 -1 8v9q0 23 8 44v0q9 21 27 38q17 17 38 25q11 5 22.5 7t23.5 2q19 0 35 -5l43 -13l26 37q12 16 27.5 30.5t33.5 26.5v0
q60 40 134 40zM602 768q-16 0 -31 -1.5t-29.5 -4.5t-29 -7t-28 -9.5t-26.5 -12.5t-26 -16q-45 -30 -76 -73q-13 4 -26 6t-27 2q-37 0 -70 -13.5t-59 -39.5q-27 -26 -40 -58q-7 -16 -10.5 -33.5t-3.5 -36.5q0 -13 1 -26q-38 -22 -67 -57q-54 -65 -54 -149q0 -50 18 -93
q18 -42 53.5 -76.5t79 -52t92.5 -17.5h508q55 0 104 19.5t88.5 58.5t59.5 86q21 49 21 104q0 19 -3 38t-8.5 37.5t-13.5 35.5t-19 34q-15 23 -34 42t-42 34q-3 51 -22 97q-23 52 -67 96q-22 21 -46.5 37t-51.5 27q-53 22 -115 22z" />
    <glyph glyph-name="uniE69A" unicode="&#xe69a;" 
d="M726 729l-158 158q-5 4 -10.5 6.5t-12 2.5t-12.5 -2.5t-10 -6.5l-158 -158q-10 -10 -10 -23t10 -23q9 -9 22.5 -9t22.5 9l104 104v-692q0 -13 9 -22.5t23 -9.5q13 0 22.5 9.5t9.5 22.5v692l103 -104q9 -9 22.5 -9t22.5 9q9 10 9 23t-9 23zM1024 -96q0 -13 -9.5 -22.5
t-22.5 -9.5h-960q-13 0 -22.5 9.5t-9.5 22.5t9.5 22.5t22.5 9.5h960q13 0 22.5 -9.5t9.5 -22.5z" />
    <glyph glyph-name="uniE69B" unicode="&#xe69b;" 
d="M1013 569q-17 14 -36 4l-139 -74v203q0 26 -19 45t-45 19h-710q-26 0 -45 -19t-19 -45v-637q0 -26 19 -45t45 -19h710q26 0 45 19t19 45v220l137 -87q8 -5 17 -5q3 0 6 1h4q3 1 5.5 2.5t4.5 3.5q12 9 12 25v319q0 15 -11 25zM742 65h-646q-9 0 -16 4.5t-11.5 12
t-4.5 15.5v573q0 13 9.5 22.5t22.5 9.5h646q13 0 22.5 -9.5t9.5 -22.5v-573q0 -13 -9.5 -22.5t-22.5 -9.5zM960 283l-121 77v67l121 64v-208z" />
    <glyph glyph-name="uniE69C" unicode="&#xe69c;" 
d="M803 249q-8 19 -18.5 36.5t-23 33.5t-26.5 31q-22 22 -47.5 39t-53.5 29l-2 1q30 17 55 42q75 74 75 180q0 51 -19.5 97.5t-55.5 82.5q-74 75 -180 75t-180 -75q-18 -18 -32 -38.5t-23.5 -43.5t-14.5 -47.5t-5 -50.5q0 -34 8.5 -66t25.5 -61t41 -53q26 -26 58 -44
q-28 -12 -53 -29t-47 -38q-11 -11 -20.5 -23t-18 -24.5t-16 -26t-13.5 -27.5q-13 -30 -19 -61t-6 -63v-221q0 -13 9.5 -22.5t22.5 -9.5q9 0 16 4.5t11.5 11.5t4.5 16v221q0 105 74.5 179.5t179.5 74.5q34 0 66 -8.5t60.5 -25.5t52.5 -41q18 -17 32 -38t23.5 -44t14.5 -47.5
t5 -49.5v-221q0 -13 9.5 -22.5t22.5 -9.5t22.5 9.5t9.5 22.5v221q0 64 -25 124zM316 641q0 38 14.5 73t41.5 62t62 41.5t73 14.5q13 0 25.5 -1.5t24.5 -5t23.5 -8t22 -11t20.5 -14t19 -16.5q56 -56 56 -135q0 -9 -1 -18.5t-2.5 -19t-4.5 -18t-6.5 -17.5t-8 -17t-9.5 -15.5
t-11 -15t-13 -14.5q-56 -56 -135 -56t-135 56q-27 27 -41.5 62t-14.5 73z" />
    <glyph glyph-name="uniE69D" unicode="&#xe69d;" 
d="M897 448v42q0 82 -31 158q-29 73 -82 129t-122 87q-72 32 -150 32q-26 0 -51.5 -3.5t-50 -10.5t-48.5 -18q-69 -31 -122 -87.5t-83 -128.5q-30 -76 -30 -158v-42v-64v-156v-283q0 -30 20.5 -51.5t48.5 -21.5h632q28 0 48.5 21.5t20.5 51.5v439v42v22zM191 490
q0 70 26 134q12 30 29.5 57.5t39.5 51.5q45 47 102 72h1q29 14 60 20.5t63 6.5q21 0 42 -3t41.5 -9t39.5 -14q58 -26 102 -73q45 -48 70 -109q7 -16 11.5 -32.5t8 -33t5 -34t1.5 -34.5v-42h-642v42zM833 -55q0 -9 -5 -9h-632q-5 0 -5 9v283v156h642v-439zM575 256
q0 17 -8.5 31.5t-23 23t-31.5 8.5t-31.5 -8.5t-23 -23t-8.5 -31.5q0 -36 31 -55v-106q0 -9 4.5 -16t11.5 -11.5t16 -4.5q7 0 12.5 2.5t10 7t7 10.5t2.5 12v107q31 18 31 54z" />
    <glyph glyph-name="uniE69E" unicode="&#xe69e;" 
d="M1015 651l-236 236q-4 4 -10 6.5t-12 2.5h-693q-26 0 -45 -19t-19 -45v-896q0 -26 19 -45t45 -19h896q26 0 45 19t19 45v693q-1 13 -9 22zM641 640h-386v192h386v-192zM960 -64h-896v896h127v-192q0 -26 19 -45t45 -19h386q26 0 45 19t19 45v192h39l216 -216v-680z
M641 415q0 -13 -9.5 -22.5t-22.5 -9.5h-386q-13 0 -22.5 9.5t-9.5 22.5t9.5 22.5t22.5 9.5h386q13 0 22.5 -9.5t9.5 -22.5zM641 225q0 -13 -9.5 -22.5t-22.5 -9.5h-386q-13 0 -22.5 9.5t-9.5 22.5t9.5 22.5t22.5 9.5h386q13 0 22.5 -9.5t9.5 -22.5z" />
    <glyph glyph-name="uniE69F" unicode="&#xe69f;" 
d="M512 63q-13 0 -22.5 9.5t-9.5 22.5v128q0 14 9.5 23t22.5 9t22.5 -9t9.5 -23v-128q0 -9 -4.5 -16t-11.5 -11.5t-16 -4.5zM867 648q-30 73 -83 129t-122 87q-36 16 -73.5 24t-76.5 8q-16 0 -31 -1.5t-30 -4t-30 -6t-29.5 -9t-29.5 -11.5q-69 -31 -122 -87.5t-83 -128.5
q-6 -17 -10 -30q-3 -8 -1.5 -15.5t6 -13.5t11 -9.5t14.5 -3.5q11 0 19.5 6.5t11.5 15.5q2 7 4 13t5 13q5 12 10.5 23.5t12 23t14 22t16 20.5t17.5 19q44 48 101 73h1q58 27 123 27q16 0 32 -1.5t31 -5t30.5 -8.5t29.5 -11q58 -26 102 -73q45 -48 70 -109q13 -32 19.5 -65.5
t6.5 -68.5v-42h-521h-121q-26 0 -45 -19t-19 -45v-156v-283q0 -30 20.5 -51.5t48.5 -21.5h632q28 0 48.5 21.5t20.5 51.5v439v42v22v42q0 41 -7.5 80.5t-22.5 77.5zM833 -55q0 -9 -5 -9h-632q-5 0 -5 9v283v156h642v-439z" />
    <glyph glyph-name="uniE6A0" unicode="&#xe6a0;" 
d="M515 342v-387l509 -83v470h-509zM1024 426v470l-509 -84v-386h509zM430 426v372l-430 -72v-300h430zM0 342v-303l430 -70v373h-430z" />
    <glyph glyph-name="uniE6A1" unicode="&#xe6a1;" 
d="M512 857q0 -15 10 -25.5t24 -11.5q18 -2 35.5 -4.5t34.5 -6.5t33.5 -9.5t32.5 -12.5q79 -33 139.5 -93.5t93.5 -139.5q14 -32 22 -66t11 -70q0 -4 1.5 -8.5t4 -8.5t6 -7t7.5 -5.5t8.5 -3.5t9.5 -1q16 0 27.5 12t9.5 28q-2 37 -10.5 73.5t-21.5 70t-30.5 65t-39 60
t-46.5 53.5t-53.5 46.5t-60 39t-65 30.5t-70 21.5t-73.5 10.5q-16 2 -28 -9.5t-12 -27.5z" />
    <glyph glyph-name="uniE6A2" unicode="&#xe6a2;" horiz-adv-x="1025" 
d="M959 383q-6 28 -21 57q19 37 13 75q-6 42 -42 74q14 39 6 76q-11 44 -52 75q-1 4 -1.5 8t-1.5 9q-9 41 -37 71q-60 66 -191 67h-2q-67 0 -125.5 -8t-86 -15.5t-70.5 -21.5q-24 -8 -37 -11.5t-31.5 -7t-35.5 -3.5h-172q-30 0 -51 -21t-21 -51v-392q0 -30 21.5 -51
t51.5 -21h122q33 0 61 -17q13 -8 25.5 -17t24.5 -20t24 -23q66 -71 87 -167q2 -6 3 -13t3 -18q8 -50 18 -74q21 -46 67 -61q33 -11 66 -8q39 3 70 26q33 24 50 67q18 44 18 108v2q-5 67 -24 119h116q21 0 41 5.5t38 15.5q24 14 45 40t29 60q8 32 2 66zM72 764h120v-409h-119
q-9 0 -9 9v392q0 3 2.5 5.5t5.5 2.5zM874 423q31 -49 21 -91q-9 -39 -44 -60q-4 -2 -8.5 -4t-9 -3.5t-9.5 -2.5t-10 -1.5t-10 -0.5h-126q-3 0 -6.5 -0.5t-6.5 -1t-6 -1.5t-5.5 -2.5t-5.5 -3t-5.5 -3.5t-4.5 -4t-4 -4.5t-4 -4.5q-17 -26 -5 -55q10 -23 16 -54t7 -52
q0 -92 -42 -123q-32 -23 -79 -8q-19 6 -27 24t-14 60q-4 24 -6 35q-26 113 -104 197q-13 14 -27.5 27t-29.5 24t-30 20q-16 9 -33 15v419q41 2 112 25q40 13 65.5 20t80 14t116.5 7h2q50 0 86.5 -11t56.5 -33q26 -28 24 -61q0 -6 1.5 -11.5t5 -10.5t9.5 -8q15 -9 24.5 -20.5
t12.5 -23.5q3 -7 2 -15.5t-2 -14.5t-3.5 -12t-4 -8.5t-2.5 -3.5q-2 -3 -3 -6.5t-1.5 -7t0 -7t1.5 -7t2.5 -6.5t4 -5.5t5.5 -4.5q8 -5 14.5 -11t11 -12t7.5 -12t4 -12q2 -11 -1.5 -22t-6 -16t-4.5 -8q-15 -17 -2 -37z" />
    <glyph glyph-name="uniE6A3" unicode="&#xe6a3;" horiz-adv-x="1025" 
d="M958 451q-6 23 -19 43.5t-27 34t-29 22.5q-18 10 -38 15.5t-41 5.5h-116q8 23 14.5 54t8 43.5t1.5 20.5v3q0 63 -18 108q-17 43 -50 67q-15 11 -33 17.5t-37 8.5q-16 1 -33 -1t-33 -7q-23 -7 -40 -22.5t-27 -38.5q-10 -24 -18 -74q-1 -6 -1.5 -8.5t-1.5 -7t-1.5 -8
t-1.5 -7.5q-10 -47 -32.5 -89.5t-54.5 -77.5q-35 -37 -74 -60q-28 -16 -61 -16h-122q-20 0 -37 -10t-26.5 -26.5t-9.5 -36.5v-392q0 -30 21 -51t51 -21h172q13 0 25 -1.5t27 -5t24 -6.5t28 -9q32 -10 52 -15.5t56.5 -13.5t79.5 -11.5t94 -3.5h2q43 0 79 7t64 22t48 37
q28 31 37 71q2 9 3 17q20 15 33.5 34t18.5 41q8 37 -6 76q36 33 42 74q6 38 -13 75q15 28 21 57q6 34 -1 66zM64 12v392q0 9 9 9h119v-409h-120q-8 0 -8 8zM876 308l2 -5q2 -3 5 -9.5t4.5 -15t0.5 -16.5q-4 -25 -37 -47q-11 -8 -13.5 -20.5t4.5 -23.5q17 -27 10 -54
q-3 -13 -12.5 -24t-25.5 -20q-17 -11 -15 -30q2 -33 -24 -61q-20 -22 -56.5 -33.5t-87.5 -11.5h-1q-62 0 -116.5 7.5t-80.5 14.5t-66 20q-70 23 -111 25v419q6 2 12 5l10 4q6 3 11 6q46 28 87 71q25 28 45.5 59.5t35 66t23.5 71.5q3 13 6 35q6 42 14 60t27 24q9 3 19 4.5
t28.5 -0.5t31.5 -12q42 -31 42 -123q-5 -63 -23 -106q-3 -7 -4 -14t-0.5 -14t3 -14t6.5 -12q8 -13 20.5 -19.5t27.5 -6.5h126q13 0 24.5 -3t21.5 -9q36 -21 45 -60q3 -14 2 -28.5t-7 -30.5t-16 -32q-13 -20 2 -37z" />
    <glyph glyph-name="uniE6A4" unicode="&#xe6a4;" horiz-adv-x="1025" 
d="M916 704q18 0 31 -13t13 -31v-488q0 -9 -3.5 -17t-9.5 -14.5t-14 -9.5t-17 -3h-664h-12l-12 -5l-141 -57q-10 -2 -18 -2h-5q1 3 2 6.5t2.5 8.5t4.5 11l1 1v1l50 116l5 12v13v427q0 18 13 31t31 13h743zM916 768h-743q-45 0 -76.5 -31.5t-31.5 -76.5v-427l-49 -115
q-26 -53 -10.5 -85.5t63.5 -32.5q17 0 37 4l146 60h664q45 0 76.5 31.5t31.5 76.5v488q0 45 -32 76.5t-76 31.5zM352 384q-14 0 -23 9.5t-9 22.5v64q0 9 4 16t11.5 11.5t16.5 4.5q13 0 22.5 -9.5t9.5 -22.5v-64q0 -9 -4.5 -16t-12 -11.5t-15.5 -4.5zM544 384
q-13 0 -22.5 9.5t-9.5 22.5v64q0 13 9.5 22.5t22.5 9.5t22.5 -9.5t9.5 -22.5v-64q0 -9 -4.5 -16t-11.5 -11.5t-16 -4.5zM737 384q-14 0 -23 9.5t-9 22.5v64q0 13 9 22.5t23 9.5q13 0 22.5 -9.5t9.5 -22.5v-64q0 -9 -4.5 -16t-12 -11.5t-15.5 -4.5z" />
    <glyph glyph-name="uniE6A5" unicode="&#xe6a5;" 
d="M512 -64h64v-64h-64v64zM512 768h-64v-128h64v64h64v64h64v64h-64v64h-192v-64h128v-64zM0 448h64v-64h-64v64zM960 384h64v-64h-64v64zM896 512v-128h-128v128h-64h-128v128h-64v-128h-64v-64h256v-64h-192v-64h64v-128h128v64h-64v64h256v64h64v128h-64zM448 128v128
h-64v-192h64v-64h-64v-64h128v56v8v64h128v64h-192zM64 512h128v-64h-128v64zM576 0h64v-64h-64v64zM0 320h64v-64h-64v64zM448 448h-122h-6v64h-64v-64h-64v-64h64v-128h64v128h6h122v64zM64 576h192q27 0 45.5 18.5t18.5 45.5v192q0 27 -18.5 45.5t-45.5 18.5h-192
q-27 0 -45.5 -18.5t-18.5 -45.5v-192q0 -27 18.5 -45.5t45.5 -18.5zM64 832h192v-192h-192v192zM128 768h64v-64h-64v64zM960 896h-192q-27 0 -45.5 -18.5t-18.5 -45.5v-192q0 -27 18.5 -45.5t45.5 -18.5h192q27 0 45.5 18.5t18.5 45.5v192q0 27 -18.5 45.5t-45.5 18.5z
M960 640h-192v192h192v-192zM832 768h64v-64h-64v64zM960 192h-192q-27 0 -45.5 -18.5t-18.5 -45.5v-192q0 -27 18.5 -45.5t45.5 -18.5h192q27 0 45.5 18.5t18.5 45.5v192q0 27 -18.5 45.5t-45.5 18.5zM960 -64h-192v192h192v-192zM832 64h64v-64h-64v64zM256 192h-192
q-27 0 -45.5 -18.5t-18.5 -45.5v-192q0 -27 18.5 -45.5t45.5 -18.5h192q27 0 45.5 18.5t18.5 45.5v192q0 27 -18.5 45.5t-45.5 18.5zM256 -64h-192v192h192v-192zM128 64h64v-64h-64v64z" />
    <glyph glyph-name="uniE6A6" unicode="&#xe6a6;" 
d="M637 832l195 -218v-669q0 -3 -4 -6t-9 -3h-614q-5 0 -9 3t-4 6v878q0 3 4 6t9 3h432zM666 896h-461q-32 0 -54.5 -21.5t-22.5 -51.5v-878q0 -30 22.5 -51.5t54.5 -21.5h614q21 0 38.5 10t28 26.5t10.5 36.5v694zM640 640v256h-64v-256q0 -26 19 -45t45 -19h253v64h-253z
M512 122q-9 0 -16 4t-11.5 11.5t-4.5 16.5v2q0 34 19 62t51 41q28 12 45 37.5t17 55.5q0 20 -7.5 38.5t-21.5 32.5q-29 30 -71 30q-35 0 -62 -21.5t-35 -54.5q-2 -6 -4.5 -10.5t-7 -7.5t-9.5 -5t-10 -2q-10 0 -18.5 6t-12 15t-0.5 19q13 54 57.5 89t101.5 35q68 0 116 -48
q23 -23 35.5 -53t12.5 -63q0 -25 -7 -48.5t-21 -43.5q-28 -41 -74 -60q-30 -12 -30 -44v-2q0 -14 -9.5 -23t-22.5 -9zM511 -1q-9 0 -16.5 4.5t-11.5 11.5t-4 16t4 16.5t11.5 11.5t16.5 4t16 -4t11.5 -11.5t4.5 -16.5q0 -13 -9.5 -22.5t-22.5 -9.5z" />
    <glyph glyph-name="uniE6A7" unicode="&#xe6a7;" 
d="M637 832l195 -218v-669q0 -3 -4 -6t-9 -3h-614q-5 0 -9 3t-4 6v878q0 3 4 6t9 3h432zM666 896h-461q-32 0 -54.5 -21.5t-22.5 -51.5v-878q0 -30 22.5 -51.5t54.5 -21.5h614q21 0 38.5 10t28 26.5t10.5 36.5v694zM640 640v256h-64v-256q0 -26 19 -45t45 -19h253v64h-253z
M641 321v127v-127zM641 512h-257q-17 0 -32 -8.5t-23.5 -23t-8.5 -31.5v-416q0 -9 4 -16t11.5 -11.5t16.5 -4.5q13 0 22.5 9.5t9.5 22.5v224h257q27 0 45.5 18.5t18.5 45.5v127q0 18 -8.5 32.5t-23 23t-32.5 8.5zM609 321h-193q-9 0 -16.5 4t-11.5 11.5t-4 16.5v63
q0 9 4 16.5t11.5 11.5t16.5 4h193q14 0 23 -9t9 -23v-63q0 -13 -9 -22.5t-23 -9.5z" />
    <glyph glyph-name="uniE6A8" unicode="&#xe6a8;" 
d="M512 896q-139 0 -257 -68.5t-186.5 -186.5t-68.5 -257t68.5 -257t186.5 -186.5t257 -68.5t257 68.5t186.5 186.5t68.5 257t-68.5 257t-186.5 186.5t-257 68.5zM364 692q5 5 11 7.5t12 2.5t12 -2.5t10 -7.5l103 -102l103 102q9 10 22.5 10t22.5 -10q9 -9 9 -22.5t-9 -22.5
l-125 -125q-9 -9 -22.5 -9.5t-22.5 9.5l-126 125q-9 9 -9 22.5t9 22.5zM769 418q0 -9 -4 -16.5t-11.5 -11.5t-16.5 -4h-193v-132h128q14 0 23 -9.5t9 -22.5q0 -9 -4 -16t-11.5 -11.5t-16.5 -4.5h-128v-92q0 -13 -9.5 -22.5t-22.5 -9.5q-9 0 -16 4t-11.5 11.5t-4.5 16.5v92
h-125q-14 0 -23 9.5t-9 22.5q0 9 4 16t11.5 11.5t16.5 4.5h125v132h-191q-9 0 -16.5 4t-11.5 11.5t-4 16.5t4 16t11.5 11.5t16.5 4.5h448q14 0 23 -9.5t9 -22.5z" />
    </font>
</defs>
</svg>
